×

¿Problemas para descargar con Mozilla, EDGE? Deshabilita la opción "Abrir vinculos en una pestaña nueva" tal como lo muestra ésta imagen.

Fenómenas (2023) NF WEB-DL 1080p Castellano

233 vistas

Información de Fenómenas (2023) NF WEB-DL 1080p Castellano

Datos de la película

  • Calidad: WEBDL
  • Audio: Español España AC3 5.1 Netflix
  • Subtitulos: Español Latino SRT- FORZADOS SRT
  • Resolución: 1920x1080p
  • Formato: MKV
  • Codec: H.264
  • Encoder: Melkor
  • Mediainfo: Clic para Mostrar Datos Ver
  • Fenómenas (2023) NF WebDL 1080p Cast.mkv
    Format                      : Matroska
    Format version              : Version 4
    File size                   : 4.77 GiB
    Duration                    : 1 h 35 min
    Overall bit rate mode       : Variable
    Overall bit rate            : 7 177 kb/s
    Movie name                  : Fenómenas (2023) CinemaniaHDD.Net
    Encoded date                : UTC 2023-04-15 04:50:17
    Writing application         : mkvmerge v56.1.0 ('My Friend') 64-bit
    Writing library             : libebml v1.4.2 + libmatroska v1.6.4
    Attachments                 : CINEMANIAHD.png
    Site                        : CinemaniaHDD.Net
    Uploader                    : Melkor

    Video
    ID                          : 1
    Format                      : AVC
    Format/Info                 : Advanced Video Codec
    Format profile              : Main@L4
    Format settings             : CABAC / 3 Ref Frames
    Format settings, CABAC      : Yes
    Format settings, Reference  : 3 frames
    Codec ID                    : V_MPEG4/ISO/AVC
    Duration                    : 1 h 35 min
    Bit rate mode               : Variable
    Bit rate                    : 5 800 kb/s
    Maximum bit rate            : 8 700 kb/s
    Width                       : 1 920 pixels
    Height                      : 1 080 pixels
    Display aspect ratio        : 16:9
    Frame rate mode             : Constant
    Frame rate                  : 24.000 FPS
    Color space                 : YUV
    Chroma subsampling          : 4:2:0
    Bit depth                   : 8 bits
    Scan type                   : Progressive
    Bits/(Pixel*Frame)          : 0.117
    Stream size                 : 3.83 GiB (80%)
    Title                       : WEB HD1080p [CinemaniaHDD]
    Writing library             : x264 core 148 r2727 7d026e8
    Encoding settings           : cabac=1 / ref=3 / deblock=1:0:0 / analyse=0x1:0x111 / me=umh / subme=10 / psy=1 / psy_rd=1.00:0.00 / mixed_ref=1 / me_range=24 / chroma_me=1 / trellis=2 / 8x8dct=0 / cqm=0 / deadzone=21,11 / fast_pskip=1 / chroma_qp_offset=-2 / threads=8 / lookahead_threads=1 / sliced_threads=0 / nr=0 / decimate=1 / interlaced=0 / bluray_compat=0 / stitchable=1 / constrained_intra=0 / bframes=2 / b_pyramid=0 / b_adapt=2 / b_bias=0 / direct=3 / weightb=1 / open_gop=0 / weightp=2 / keyint=250 / keyint_min=24 / scenecut=0 / intra_refresh=0 / rc_lookahead=48 / rc=2pass / mbtree=1 / bitrate=5800 / ratetol=1.0 / qcomp=0.50 / qpmin=6 / qpmax=51 / qpstep=4 / cplxblur=20.0 / qblur=0.5 / vbv_maxrate=8700 / vbv_bufsize=11600 / nal_hrd=vbr / filler=0 / ip_ratio=1.40 / aq=1:1.00
    Default                     : Yes
    Forced                      : Yes

    Audio #1
    ID                          : 2
    Format                      : AC-3
    Format/Info                 : Audio Coding 3
    Commercial name             : Dolby Digital
    Codec ID                    : A_AC3
    Duration                    : 1 h 35 min
    Bit rate mode               : Constant
    Bit rate                    : 640 kb/s
    Channel(s)                  : 6 channels
    Channel layout              : L R C LFE Ls Rs
    Sampling rate               : 48.0 kHz
    Frame rate                  : 31.250 FPS (1536 SPF)
    Compression mode            : Lossy
    Stream size                 : 436 MiB (9%)
    Title                       : Español Castellano [CinemaniaHDD]
    Language                    : Spanish
    Service kind                : Complete Main
    Default                     : Yes
    Forced                      : Yes

    Audio #2
    ID                          : 3
    Format                      : E-AC-3 JOC
    Format/Info                 : Enhanced AC-3 with Joint Object Coding
    Commercial name             : Dolby Digital Plus with Dolby Atmos
    Codec ID                    : A_EAC3
    Duration                    : 1 h 35 min
    Bit rate mode               : Constant
    Bit rate                    : 768 kb/s
    Channel(s)                  : 6 channels
    Channel layout              : L R C LFE Ls Rs
    Sampling rate               : 48.0 kHz
    Frame rate                  : 31.250 FPS (1536 SPF)
    Compression mode            : Lossy
    Stream size                 : 523 MiB (11%)
    Title                       : Español Castellano EAC3 [CinemaniaHDD]
    Language                    : Spanish
    Service kind                : Complete Main
    Default                     : No
    Forced                      : No
    Complexity index            : 16
    Number of dynamic objects   : 15
    Bed channel count           : 1 channel
    Bed channel configuration   : LFE

    Text #1
    ID                          : 4
    Format                      : UTF-8
    Codec ID                    : S_TEXT/UTF8
    Codec ID/Info               : UTF-8 Plain Text
    Duration                    : 1 h 0 min
    Bit rate                    : 0 b/s
    Count of elements           : 4
    Stream size                 : 84.0 Bytes (0%)
    Title                       : Forced
    Language                    : Spanish
    Default                     : Yes
    Forced                      : Yes

    Text #2
    ID                          : 5
    Format                      : UTF-8
    Codec ID                    : S_TEXT/UTF8
    Codec ID/Info               : UTF-8 Plain Text
    Duration                    : 1 h 28 min
    Bit rate                    : 62 b/s
    Count of elements           : 1191
    Stream size                 : 40.1 KiB (0%)
    Language                    : Spanish
    Default                     : No
    Forced                      : No

  • Peso: 4.77 GiB

Sinopsis

Descargar Fenómenas (2023) NF WEB-DL 1080p Castellano. A finales de los años 90, Sagrario (Belén Rueda), Paz (Gracia Olayo), Gloria (Toni Acosta) y el padre Girón (Emilio Gutiérrez Cava), forman un equipo de investigación especializado en fenómenos paranormales: el grupo Hepta. Aunque el grupo no está pasando por su mejor momento, aceptan investigar un anticuario en el que suceden cosas extrañas. Pero lo que parecía un caso como otro cualquiera, se convertirá en el más difícil de sus vidas. Y solo juntos podrán resolverlo.

Ficha técnica

Video trailer de la película

Enlaces de descarga

Rip de Bluray

Descargar Fenómenas (2023) NF WEB-DL 1080p Castellano




Aportes de DPeliculasHDmega la pass es:dpeliculashdmega.org Aportes de CinemaniaHD la pass es:cinemaniahdd.com Aportes recientes:cinemaniahdd.net
Guardado en : Misterio , Netflix , Terror

Películas relacionadas

  • Squealer (2023) PCOK WEB-DL 1080p Latino

    Squealer (2023) PCOK WEB-DL 1080p Latino

    2023
    Squealer (2023) PCOK WEB-DL 1080p Latino

    1h 39m 2023

    Un policía local y una trabajadora social, siguen las pistas sobre los casos de personas desaparecidas...

    Director: Andy Armstrong

    Género: Suspenso

    Actores: Wes Chatham

  • Players (2024) NF WEB-DL 1080p Latino

    Players (2024) NF WEB-DL 1080p Latino

    2024
    Players (2024) NF WEB-DL 1080p Latino

    1h 45m 2024

    Descargar Players (2024) NF WEB-DL 1080p Latino. Una periodista deportiva neoyorquina con un ingenioso...

    Director: Trish Sie

    Género: Comedia

    Actores: Veraalba Santa

descargar Fenómenas (2023) NF WEB-DL 1080p Castellano WEBDL 1080p gratis, Fenómenas (2023) NF WEB-DL 1080p Castellano WEBDL mega 1 link, Fenómenas (2023) NF WEB-DL 1080p Castellano WEBDL pelicula completa, descargar Fenómenas (2023) NF WEB-DL 1080p Castellano WEBDL gratis en mega.

Fenómenas (2023) NF WEB-DL 1080p Castellano pelicula full hd, Fenómenas (2023) NF WEB-DL 1080p Castellano mega latino, Fenómenas (2023) NF WEB-DL 1080p Castellano 4k latino, Fenómenas (2023) NF WEB-DL 1080p Castellano pelicula completa, Fenómenas (2023) NF WEB-DL 1080p Castellano descargar gratis, descargar Fenómenas (2023) NF WEB-DL 1080p Castellano pelicula latino, Fenómenas (2023) NF WEB-DL 1080p Castellano 1 link mega, Fenómenas (2023) NF WEB-DL 1080p Castellano 1 link google drive, Fenómenas (2023) NF WEB-DL 1080p Castellano hd 1080p latino.
Comentarios 0