×

¿Problemas para descargar con Mozilla, EDGE? Deshabilita la opción "Abrir vinculos en una pestaña nueva" tal como lo muestra ésta imagen.

Fences (2016) FULL 1080p x265 Latino

1.597 vistas

Información de Fences (2016) FULL 1080p x265 Latino

fences 32693 poster

Datos de la película

  • Calidad: Full 1080p
  • Audio: Español Latino AC3 5.1 BLURAY - Ingles DTS 5.1 BLURAY
  • Subtitulos: Español Latino SRT
  • Resolución: 1920x1080p
  • Formato: MKV
  • Codec: H.265
  • Encoder:
  • Mediainfo: Clic para Mostrar Datos Ver
  • Fences (2016) 1080p BluRay x265 HEVC DTS Dual Latino.mkv
    Format                      : Matroska
    Format version              : Version 4 / Version 2
    File size                   : 3.71 GiB
    Duration                    : 2h 18mn
    Overall bit rate            : 3 829 Kbps
    Encoded date                : UTC 2017-04-18 11:16:17
    Writing application         : mkvmerge v8.6.1 ('Flying') 64bit
    Writing library             : libebml v1.3.3 + libmatroska v1.4.4
    DURATION                    : 02:18:51.200000000
    NUMBER_OF_FRAMES            : 260350
    NUMBER_OF_BYTES             : 666496000
    _STATISTICS_WRITING_APP     : mkvmerge v8.6.1 ('Flying') 64bit
    _STATISTICS_WRITING_DATE_UT : 2017-04-18 11:16:17
    _STATISTICS_TAGS            : BPS DURATION NUMBER_OF_FRAMES NUMBER_OF_BYTES

    Video
    ID                          : 1
    Format                      : HEVC
    Format/Info                 : High Efficiency Video Coding
    Format profile              : Main@L4@Main
    Codec ID                    : V_MPEGH/ISO/HEVC
    Duration                    : 2h 18mn
    Bit rate                    : 1 604 Kbps
    Width                       : 1 920 pixels
    Height                      : 1 080 pixels
    Display aspect ratio        : 16:9
    Frame rate mode             : Constant
    Frame rate                  : 23.976 fps
    Color space                 : YUV
    Chroma subsampling          : 4:2:0
    Bit depth                   : 8 bits
    Bits/(Pixel*Frame)          : 0.032
    Stream size                 : 1.56 GiB (42%)
    Writing library             : x265 2.1:[Windows][GCC 5.4.0][64 bit] 8bit
    Encoding settings           : wpp / ctu=64 / min-cu-size=8 / max-tu-size=32 / tu-intra-depth=1 / tu-inter-depth=1 / me=3 / subme=3 / merange=57 / rect / no-amp / max-merge=3 / temporal-mvp / no-early-skip / rskip / rdpenalty=0 / no-tskip / no-tskip-fast / strong-intra-smoothing / no-lossless / no-cu-lossless / no-constrained-intra / no-fast-intra / open-gop / no-temporal-layers / interlace=0 / keyint=240 / min-keyint=24 / scenecut=40 / rc-lookahead=25 / lookahead-slices=4 / bframes=4 / bframe-bias=0 / b-adapt=2 / ref=4 / limit-refs=3 / limit-modes / weightp / no-weightb / aq-mode=1 / qg-size=32 / aq-strength=1.00 / cbqpoffs=0 / crqpoffs=0 / rd=4 / psy-rd=2.00 / rdoq-level=2 / psy-rdoq=1.00 / log2-max-poc-lsb=8 / no-rd-refine / signhide / deblock=0:0 / sao / no-sao-non-deblock / b-pyramid / cutree / no-intra-refresh / rc=crf / crf=20.0 / qcomp=0.60 / qpmin=0 / qpmax=69 / qpstep=4 / ipratio=1.40 / pbratio=1.30
    Default                     : Yes
    Forced                      : No
    Color range                 : Limited
    Color primaries             : BT.709
    Transfer characteristics    : BT.709
    Matrix coefficients         : BT.709
    DURATION                    : 02:18:51.198000000
    NUMBER_OF_FRAMES            : 199748
    NUMBER_OF_BYTES             : 1695747393
    _STATISTICS_WRITING_APP     : mkvmerge v8.6.1 ('Flying') 64bit
    _STATISTICS_WRITING_DATE_UT : 2017-04-18 11:16:17
    _STATISTICS_TAGS            : BPS DURATION NUMBER_OF_FRAMES NUMBER_OF_BYTES

    Audio #1
    ID                          : 2
    Format                      : AC-3
    Format/Info                 : Audio Coding 3
    Mode extension              : CM (complete main)
    Format settings, Endianness : Big
    Codec ID                    : A_AC3
    Duration                    : 2h 18mn
    Bit rate mode               : Constant
    Bit rate                    : 640 Kbps
    Channel(s)                  : 6 channels
    Channel positions           : Front: L C R, Side: L R, LFE
    Sampling rate               : 48.0 KHz
    Compression mode            : Lossy
    Stream size                 : 636 MiB (17%)
    Title                       : Español Latino AC3 5.1 [640 Kbps]
    Language                    : Spanish
    Default                     : Yes
    Forced                      : No

    Audio #2
    ID                          : 3
    Format                      : DTS
    Format/Info                 : Digital Theater Systems
    Mode                        : 16
    Format settings, Endianness : Big
    Codec ID                    : A_DTS
    Duration                    : 2h 18mn
    Bit rate mode               : Constant
    Bit rate                    : 1 509 Kbps
    Channel(s)                  : 6 channels
    Channel positions           : Front: L C R, Side: L R, LFE
    Sampling rate               : 48.0 KHz
    Bit depth                   : 24 bits
    Compression mode            : Lossy
    Stream size                 : 1.46 GiB (39%)
    Title                       : Inglés DTS 5.1 [1509 Kbps]
    Language                    : English
    Default                     : No
    Forced                      : No

    Text #1
    ID                          : 4
    Format                      : UTF-8
    Codec ID                    : S_TEXT/UTF8
    Codec ID/Info               : UTF-8 Plain Text
    Title                       : Subtítulos Español Latino [SRT]
    Language                    : Spanish
    Default                     : No
    Forced                      : No

    Text #2
    ID                          : 5
    Format                      : PGS
    Codec ID                    : S_HDMV/PGS
    Codec ID/Info               : Picture based subtitle format used on BDs/HD-DVDs
    Title                       : Subtítulos Español Latino [PGS]
    Language                    : Spanish
    Default                     : No
    Forced                      : No

    Menu
    00:00:00.000                : :Chapter 1
    00:06:38.398                : :Chapter 2
    00:13:45.241                : :Chapter 3
    00:21:06.307                : :Chapter 4
    00:30:06.263                : :Chapter 5
    00:37:17.819                : :Chapter 6
    00:45:10.625                : :Chapter 7
    00:51:49.148                : :Chapter 8
    00:57:56.932                : :Chapter 9
    01:04:58.686                : :Chapter 10
    01:13:11.846                : :Chapter 11
    01:23:34.760                : :Chapter 12
    01:29:57.851                : :Chapter 13
    01:36:17.313                : :Chapter 14
    01:43:13.312                : :Chapter 15
    01:54:28.028                : :Chapter 16
    02:01:40.210                : :Chapter 17
    02:10:13.806                : :Chapter 18

  • Peso: 3.71 GB

Sinopsis

En los años 50, un padre afroamericano lucha contra los prejuicios raciales mientras trata de sacar adelante a su familia en una serie de eventos fundamentales en su vida para él y para los suyos… Denzel Washington lleva al cine una obra de teatro que ya interpretó en Broadway.

Ficha técnica

Imágenes, Capturas de la película

Video trailer de la película

Enlaces de descarga

Rip de Bluray

Descargar Fences (2016) FULL 1080p x265 Latino




Aportes de DPeliculasHDmega la pass es:dpeliculashdmega.org Aportes de CinemaniaHD la pass es:cinemaniahdd.com
Guardado en : 1080p x265 HEVC , Drama

Películas relacionadas

descargar Fences (2016) FULL 1080p x265 Latino Full 1080p 1080p gratis, Fences (2016) FULL 1080p x265 Latino Full 1080p mega 1 link, Fences (2016) FULL 1080p x265 Latino Full 1080p pelicula completa, descargar Fences (2016) FULL 1080p x265 Latino Full 1080p gratis en mega.

Fences (2016) FULL 1080p x265 Latino pelicula full hd, Fences (2016) FULL 1080p x265 Latino mega latino, Fences (2016) FULL 1080p x265 Latino 4k latino, Fences (2016) FULL 1080p x265 Latino pelicula completa, Fences (2016) FULL 1080p x265 Latino descargar gratis, descargar Fences (2016) FULL 1080p x265 Latino pelicula latino, Fences (2016) FULL 1080p x265 Latino 1 link mega, Fences (2016) FULL 1080p x265 Latino 1 link google drive, Fences (2016) FULL 1080p x265 Latino hd 1080p latino.
Comentarios 0