×

¿Problemas para descargar con Mozilla, EDGE? Deshabilita la opción "Abrir vinculos en una pestaña nueva" tal como lo muestra ésta imagen.

Felicidad Para Principiantes (2023) NF WEB-DL 1080p Latino

127 vistas

Información de Felicidad Para Principiantes (2023) NF WEB-DL 1080p Latino

Datos de la película

  • Calidad: WEBDL
  • Audio: Español Latino E-AC3 5.1 Netflix - Ingles E-AC3 5.1 Netflix
  • Subtitulos: Español Latino SRT- FORZADOS SRT
  • Resolución: 1920x1080p
  • Formato: MKV
  • Codec: H.264
  • Encoder: Melkor
  • Mediainfo: Clic para Mostrar Datos Ver
  • Felicidada Para Principiantes (2023) NF WebDL 1080p Latino.mkv
    Format                      : Matroska
    Format version              : Version 4
    File size                   : 5.57 GiB
    Duration                    : 1 h 45 min
    Overall bit rate mode       : Variable
    Overall bit rate            : 7 559 kb/s
    Movie name                  : Happiness for Beginners (2023) CinemaniaHDD.Net
    Encoded date                : UTC 2023-08-03 06:15:07
    Writing application         : mkvmerge v56.1.0 ('My Friend') 64-bit
    Writing library             : libebml v1.4.2 + libmatroska v1.6.4
    Attachments                 : CINEMANIAHD.png
    Site                        : CinemaniaHDD.Net
    Uploader                    : Melkor

    Video
    ID                          : 1
    Format                      : AVC
    Format/Info                 : Advanced Video Codec
    Format profile              : High@L4
    Format settings             : CABAC / 4 Ref Frames
    Format settings, CABAC      : Yes
    Format settings, Reference  : 4 frames
    Codec ID                    : V_MPEG4/ISO/AVC
    Duration                    : 1 h 45 min
    Bit rate mode               : Variable
    Bit rate                    : 5 701 kb/s
    Maximum bit rate            : 20.0 Mb/s
    Width                       : 1 920 pixels
    Height                      : 1 080 pixels
    Display aspect ratio        : 16:9
    Frame rate mode             : Constant
    Frame rate                  : 24.000 FPS
    Color space                 : YUV
    Chroma subsampling          : 4:2:0
    Bit depth                   : 8 bits
    Scan type                   : Progressive
    Bits/(Pixel*Frame)          : 0.115
    Stream size                 : 4.20 GiB (75%)
    Title                       : Web HD1080p [CinemaniaHDD]
    Writing library             : x264 core 148 r2727 7d026e8
    Encoding settings           : cabac=1 / ref=4 / deblock=1:0:0 / analyse=0x3:0x111 / me=umh / subme=10 / psy=1 / psy_rd=1.00:0.00 / mixed_ref=1 / me_range=120 / chroma_me=1 / trellis=2 / 8x8dct=1 / cqm=0 / deadzone=21,11 / fast_pskip=1 / chroma_qp_offset=-2 / threads=8 / lookahead_threads=2 / sliced_threads=0 / nr=0 / decimate=1 / interlaced=0 / bluray_compat=0 / stitchable=1 / constrained_intra=0 / bframes=16 / b_pyramid=2 / b_adapt=2 / b_bias=0 / direct=3 / weightb=1 / open_gop=0 / weightp=2 / keyint=240 / keyint_min=121 / scenecut=0 / intra_refresh=0 / rc_lookahead=240 / rc=crf / mbtree=1 / crf=16.0 / qcomp=0.50 / qpmin=6 / qpmax=51 / qpstep=4 / vbv_maxrate=20000 / vbv_bufsize=25000 / crf_max=0.0 / nal_hrd=vbr / filler=0 / ip_ratio=1.40 / aq=1:0.80
    Default                     : Yes
    Forced                      : Yes

    Audio #1
    ID                          : 2
    Format                      : AC-3
    Format/Info                 : Audio Coding 3
    Commercial name             : Dolby Digital
    Codec ID                    : A_AC3
    Duration                    : 1 h 45 min
    Bit rate mode               : Constant
    Bit rate                    : 448 kb/s
    Channel(s)                  : 6 channels
    Channel layout              : L R C LFE Ls Rs
    Sampling rate               : 48.0 kHz
    Frame rate                  : 31.250 FPS (1536 SPF)
    Compression mode            : Lossy
    Stream size                 : 338 MiB (6%)
    Title                       : Español Latino AC3 [CinemaniaHDD]
    Language                    : Spanish
    Service kind                : Complete Main
    Default                     : Yes
    Forced                      : Yes

    Audio #2
    ID                          : 3
    Format                      : E-AC-3
    Format/Info                 : Enhanced AC-3
    Commercial name             : Dolby Digital Plus
    Codec ID                    : A_EAC3
    Duration                    : 1 h 45 min
    Bit rate mode               : Constant
    Bit rate                    : 640 kb/s
    Channel(s)                  : 6 channels
    Channel layout              : L R C LFE Ls Rs
    Sampling rate               : 48.0 kHz
    Frame rate                  : 31.250 FPS (1536 SPF)
    Compression mode            : Lossy
    Stream size                 : 483 MiB (8%)
    Title                       : Español Latino EAC3 [CinemaniaHDD]
    Language                    : Spanish
    Service kind                : Complete Main
    Default                     : No
    Forced                      : No

    Audio #3
    ID                          : 4
    Format                      : E-AC-3 JOC
    Format/Info                 : Enhanced AC-3 with Joint Object Coding
    Commercial name             : Dolby Digital Plus with Dolby Atmos
    Codec ID                    : A_EAC3
    Duration                    : 1 h 45 min
    Bit rate mode               : Constant
    Bit rate                    : 768 kb/s
    Channel(s)                  : 6 channels
    Channel layout              : L R C LFE Ls Rs
    Sampling rate               : 48.0 kHz
    Frame rate                  : 31.250 FPS (1536 SPF)
    Compression mode            : Lossy
    Stream size                 : 580 MiB (10%)
    Title                       : Ingles [CinemaniaHDD]
    Language                    : English
    Service kind                : Complete Main
    Default                     : No
    Forced                      : No
    Complexity index            : 16
    Number of dynamic objects   : 15
    Bed channel count           : 1 channel
    Bed channel configuration   : LFE

    Text #1
    ID                          : 5
    Format                      : UTF-8
    Codec ID                    : S_TEXT/UTF8
    Codec ID/Info               : UTF-8 Plain Text
    Duration                    : 1 h 42 min
    Bit rate                    : 1 b/s
    Count of elements           : 45
    Stream size                 : 1.33 KiB (0%)
    Title                       : Forzados-SRT [CinemaniaHDD]
    Language                    : Spanish
    Default                     : Yes
    Forced                      : Yes

    Text #2
    ID                          : 6
    Format                      : UTF-8
    Codec ID                    : S_TEXT/UTF8
    Codec ID/Info               : UTF-8 Plain Text
    Duration                    : 1 h 43 min
    Bit rate                    : 72 b/s
    Count of elements           : 1689
    Stream size                 : 55.1 KiB (0%)
    Title                       : Español-SRT [CinemaniaHDD]
    Language                    : Spanish
    Default                     : No
    Forced                      : No

    Text #3
    ID                          : 7
    Format                      : UTF-8
    Codec ID                    : S_TEXT/UTF8
    Codec ID/Info               : UTF-8 Plain Text
    Duration                    : 1 h 43 min
    Bit rate                    : 94 b/s
    Count of elements           : 1966
    Stream size                 : 72.0 KiB (0%)
    Title                       : Ingles-SRT [CinemaniaHDD]
    Language                    : English
    Default                     : No
    Forced                      : No

  • Peso: 5.57 GiB

Sinopsis

Descargar Felicidad Para Principiantes (2023) NF WEB-DL 1080p Latino. Un año después de divorciarse, Helen Carpenter, de treinta y dos años, deja que su molesto hermano diez años menor la convenza de inscribirse en un curso de supervivencia en la naturaleza.

Ficha técnica

Video trailer de la película

Enlaces de descarga

Rip de Bluray

Descargar Felicidad Para Principiantes (2023) NF WEB-DL 1080p Latino




Aportes de DPeliculasHDmega la pass es:dpeliculashdmega.org Aportes de CinemaniaHD la pass es:cinemaniahdd.com Aportes recientes:cinemaniahdd.net
Guardado en : Aventura , Comedia , Netflix , Romance

Películas relacionadas

  • Good Burger 2 (2023) HD 1080p Latino

    Good Burger 2 (2023) HD 1080p Latino

    2023
    Good Burger 2 (2023) HD 1080p Latino

    1h 31m 2023

    Descargar Good Burger 2 (2023) HD 1080p Latino. Después de que su último invento falla, Ed le da la...

    Director: Ross Novie

    Género: Comedia

    Actores: Zoe Saldana

  • Good Burger 2 (2023) PLACEBO Full HD 1080p Latino

    Good Burger 2 (2023) PLACEBO Full HD 1080p Latino

    2023
    Good Burger 2 (2023) PLACEBO Full HD 1080p Latino

    1h 31m 2023

    Descargar Good Burger 2 (2023) PLACEBO Full HD 1080p Latino. Después de que su último invento falla,...

    Director: Ross Novie

    Género: Comedia

    Actores: Zoe Saldana

  • Good Burger 2 (2023) REMUX 1080p Latino

    Good Burger 2 (2023) REMUX 1080p Latino

    2023
    Good Burger 2 (2023) REMUX 1080p Latino

    1h 31m 2023

    Descargar Good Burger 2 (2023) REMUX 1080p Latino. Después de que su último invento falla, Ed le da...

    Director: Ross Novie

    Género: Comedia

    Actores: Zoe Saldana

descargar Felicidad Para Principiantes (2023) NF WEB-DL 1080p Latino WEBDL 1080p gratis, Felicidad Para Principiantes (2023) NF WEB-DL 1080p Latino WEBDL mega 1 link, Felicidad Para Principiantes (2023) NF WEB-DL 1080p Latino WEBDL pelicula completa, descargar Felicidad Para Principiantes (2023) NF WEB-DL 1080p Latino WEBDL gratis en mega.

Felicidad Para Principiantes (2023) NF WEB-DL 1080p Latino pelicula full hd, Felicidad Para Principiantes (2023) NF WEB-DL 1080p Latino mega latino, Felicidad Para Principiantes (2023) NF WEB-DL 1080p Latino 4k latino, Felicidad Para Principiantes (2023) NF WEB-DL 1080p Latino pelicula completa, Felicidad Para Principiantes (2023) NF WEB-DL 1080p Latino descargar gratis, descargar Felicidad Para Principiantes (2023) NF WEB-DL 1080p Latino pelicula latino, Felicidad Para Principiantes (2023) NF WEB-DL 1080p Latino 1 link mega, Felicidad Para Principiantes (2023) NF WEB-DL 1080p Latino 1 link google drive, Felicidad Para Principiantes (2023) NF WEB-DL 1080p Latino hd 1080p latino.
Comentarios 0