×

¿Problemas para descargar con Mozilla, EDGE? Deshabilita la opción "Abrir vinculos en una pestaña nueva" tal como lo muestra ésta imagen.

Feed the Beast (2016) Primera Temporada AMZN WEB-DL 1080p Latino

55 vistas

Información de Feed the Beast (2016) Primera Temporada AMZN WEB-DL 1080p Latino

Datos de la película

  • Calidad: 1080p
  • Audio: Español Latino AC3 5.1 WEB-DL - Ingles AC3 5.1 WEB-DL
  • Subtitulos: Español Latino SRT - Ingles SRT
  • Resolución: 1920x1080
  • Formato: MKV
  • Codec: H.264
  • Encoder: cinemaniahdd
  • Mediainfo: Clic para Mostrar Datos Ver
  • Feed the Beast T01E01 AMZN WEB-DL 1080p Latino [CNMNHDD].mkv
    Format                      : Matroska
    Format version              : Version 4
    File size                   : 3.60 GiB
    Duration                    : 45 min 32 s
    Overall bit rate            : 11.3 Mb/s
    Movie name                  : Feed the Beast S01E01 - Luz de piloto [1080p] - CinemaniaHDD.Net
    Encoded date                : UTC 2024-03-03 18:59:36
    Writing application         : mkvmerge v56.1.0 ('My Friend') 64-bit
    Writing library             : libebml v1.4.2 + libmatroska v1.6.4

    Video
    ID                          : 1
    Format                      : AVC
    Format/Info                 : Advanced Video Codec
    Format profile              : High@L4
    Format settings             : CABAC / 4 Ref Frames
    Format settings, CABAC      : Yes
    Format settings, Reference  : 4 frames
    Codec ID                    : V_MPEG4/ISO/AVC
    Duration                    : 45 min 32 s
    Bit rate mode               : Constant
    Bit rate                    : 9 382 kb/s
    Nominal bit rate            : 10 000 kb/s
    Width                       : 1 920 pixels
    Height                      : 1 080 pixels
    Display aspect ratio        : 16:9
    Frame rate mode             : Constant
    Frame rate                  : 23.976 (24000/1001) FPS
    Color space                 : YUV
    Chroma subsampling          : 4:2:0
    Bit depth                   : 8 bits
    Scan type                   : Progressive
    Bits/(Pixel*Frame)          : 0.189
    Stream size                 : 2.98 GiB (83%)
    Title                       : CinemaniaHDD
    Default                     : Yes
    Forced                      : No
    Color range                 : Limited
    Color primaries             : BT.709
    Transfer characteristics    : BT.709
    Matrix coefficients         : BT.709

    Audio #1
    ID                          : 2
    Format                      : AC-3
    Format/Info                 : Audio Coding 3
    Commercial name             : Dolby Digital
    Codec ID                    : A_AC3
    Duration                    : 45 min 32 s
    Bit rate mode               : Constant
    Bit rate                    : 640 kb/s
    Channel(s)                  : 6 channels
    Channel layout              : L R C LFE Ls Rs
    Sampling rate               : 48.0 kHz
    Frame rate                  : 31.250 FPS (1536 SPF)
    Compression mode            : Lossy
    Stream size                 : 208 MiB (6%)
    Title                       : Español Latino [CinemaniaHDD]
    Language                    : Spanish
    Service kind                : Complete Main
    Default                     : Yes
    Forced                      : No

    Audio #2
    ID                          : 3
    Format                      : E-AC-3
    Format/Info                 : Enhanced AC-3
    Commercial name             : Dolby Digital Plus
    Codec ID                    : A_EAC3
    Duration                    : 45 min 32 s
    Bit rate mode               : Constant
    Bit rate                    : 640 kb/s
    Channel(s)                  : 6 channels
    Channel layout              : L R C LFE Ls Rs
    Sampling rate               : 48.0 kHz
    Frame rate                  : 31.250 FPS (1536 SPF)
    Compression mode            : Lossy
    Stream size                 : 208 MiB (6%)
    Title                       : Español latino / E-AC3 [CinemaniaHDD]
    Language                    : Spanish
    Service kind                : Complete Main
    Default                     : No
    Forced                      : No

    Audio #3
    ID                          : 4
    Format                      : E-AC-3
    Format/Info                 : Enhanced AC-3
    Commercial name             : Dolby Digital Plus
    Codec ID                    : A_EAC3
    Duration                    : 45 min 32 s
    Bit rate mode               : Constant
    Bit rate                    : 640 kb/s
    Channel(s)                  : 6 channels
    Channel layout              : L R C LFE Ls Rs
    Sampling rate               : 48.0 kHz
    Frame rate                  : 31.250 FPS (1536 SPF)
    Compression mode            : Lossy
    Stream size                 : 208 MiB (6%)
    Title                       : Inglés [CinemaniaHDD]
    Language                    : English
    Service kind                : Complete Main
    Default                     : No
    Forced                      : No

    Text #1
    ID                          : 5
    Format                      : UTF-8
    Codec ID                    : S_TEXT/UTF8
    Codec ID/Info               : UTF-8 Plain Text
    Duration                    : 44 min 9 s
    Bit rate                    : 54 b/s
    Count of elements           : 488
    Stream size                 : 17.6 KiB (0%)
    Title                       : Español Latino [CinemaniaHDD]
    Language                    : Spanish
    Default                     : No
    Forced                      : No

    Text #2
    ID                          : 6
    Format                      : UTF-8
    Codec ID                    : S_TEXT/UTF8
    Codec ID/Info               : UTF-8 Plain Text
    Duration                    : 44 min 51 s
    Bit rate                    : 59 b/s
    Count of elements           : 708
    Stream size                 : 19.5 KiB (0%)
    Title                       : Inglés [CinemaniaHDD]
    Language                    : English
    Default                     : No
    Forced                      : No

     

  • Peso: 3.60 GiB Aprox ---- 34 GiB in 10 Chapters.

Sinopsis

Al enfrentarse a la ruina personal y financiera, dos mejores amigos con problemas se arriesgan con su última oportunidad para un sueo imposible: abrir un restaurante elegante en su oprimido barrio, el Bronx.

Ficha técnica

Video trailer de la película

Enlaces de descarga

Rip de Bluray

Descargar Feed the Beast (2016) Primera Temporada AMZN WEB-DL 1080p Latino




Aportes de DPeliculasHDmega la pass es:dpeliculashdmega.org Aportes de CinemaniaHD la pass es:cinemaniahdd.com Aportes recientes:cinemaniahdd.net
Guardado en : Drama , Series

Películas relacionadas

descargar Feed the Beast (2016) Primera Temporada AMZN WEB-DL 1080p Latino 1080p 1080p gratis, Feed the Beast (2016) Primera Temporada AMZN WEB-DL 1080p Latino 1080p mega 1 link, Feed the Beast (2016) Primera Temporada AMZN WEB-DL 1080p Latino 1080p serie completa, descargar Feed the Beast (2016) Primera Temporada AMZN WEB-DL 1080p Latino 1080p gratis en mega.

Feed the Beast (2016) Primera Temporada AMZN WEB-DL 1080p Latino pelicula full hd, Feed the Beast (2016) Primera Temporada AMZN WEB-DL 1080p Latino mega latino, Feed the Beast (2016) Primera Temporada AMZN WEB-DL 1080p Latino 4k latino, Feed the Beast (2016) Primera Temporada AMZN WEB-DL 1080p Latino pelicula completa, Feed the Beast (2016) Primera Temporada AMZN WEB-DL 1080p Latino descargar gratis, descargar Feed the Beast (2016) Primera Temporada AMZN WEB-DL 1080p Latino pelicula latino, Feed the Beast (2016) Primera Temporada AMZN WEB-DL 1080p Latino 1 link mega, Feed the Beast (2016) Primera Temporada AMZN WEB-DL 1080p Latino 1 link google drive, Feed the Beast (2016) Primera Temporada AMZN WEB-DL 1080p Latino hd 1080p latino.
Comentarios 0