×

¿Problemas para descargar con Mozilla, EDGE? Deshabilita la opción "Abrir vinculos en una pestaña nueva" tal como lo muestra ésta imagen.

Fear the Walking Dead (2023) Octava Temporada AMZN WEB-DL 1080p Latino

543 vistas

Información de Fear the Walking Dead (2023) Octava Temporada AMZN WEB-DL 1080p Latino

Datos de la película

  • Calidad: 1080p
  • Audio: Español Latino AC3 2.0 WEB-DL - Ingles AC3 5.1 WEB-DL
  • Subtitulos: Español Latino SRT- FORZADOS SRT
  • Resolución: 1920x960
  • Formato: MKV
  • Codec: H.264
  • Encoder: cinemaniahdd
  • Mediainfo: Clic para Mostrar Datos Ver
  • Fear the Walking Dead T08E01 AMZN WEB-DL 1080p Latino [CNMNHDD].mkv
    Format                      : Matroska
    Format version              : Version 4
    File size                   : 4.33 GiB
    Duration                    : 50 min 15 s
    Overall bit rate mode       : Variable
    Overall bit rate            : 12.3 Mb/s
    Movie name                  : Fear the Walking Dead S08E01 - Remember What They Took From You [1080p] - CinemaniaHDD.Net
    Encoded date                : UTC 2023-05-18 01:14:22
    Writing application         : mkvmerge v56.1.0 ('My Friend') 64-bit
    Writing library             : libebml v1.4.2 + libmatroska v1.6.4

    Video
    ID                          : 1
    Format                      : AVC
    Format/Info                 : Advanced Video Codec
    Format profile              : High@L4
    Format settings             : CABAC / 4 Ref Frames
    Format settings, CABAC      : Yes
    Format settings, Reference  : 4 frames
    Codec ID                    : V_MPEG4/ISO/AVC
    Duration                    : 50 min 15 s
    Bit rate mode               : Variable
    Bit rate                    : 11.3 Mb/s
    Maximum bit rate            : 40.0 Mb/s
    Width                       : 1 920 pixels
    Height                      : 960 pixels
    Display aspect ratio        : 2.000
    Frame rate mode             : Constant
    Frame rate                  : 24.000 FPS
    Color space                 : YUV
    Chroma subsampling          : 4:2:0
    Bit depth                   : 8 bits
    Scan type                   : Progressive
    Bits/(Pixel*Frame)          : 0.255
    Stream size                 : 3.97 GiB (92%)
    Title                       : CinemaniaHDD
    Default                     : Yes
    Forced                      : No
    Color range                 : Limited
    Color primaries             : BT.709
    Transfer characteristics    : BT.709
    Matrix coefficients         : BT.709

    Audio #1
    ID                          : 2
    Format                      : AC-3
    Format/Info                 : Audio Coding 3
    Commercial name             : Dolby Digital
    Codec ID                    : A_AC3
    Duration                    : 50 min 15 s
    Bit rate mode               : Constant
    Bit rate                    : 384 kb/s
    Channel(s)                  : 2 channels
    Channel layout              : L R
    Sampling rate               : 48.0 kHz
    Frame rate                  : 31.250 FPS (1536 SPF)
    Compression mode            : Lossy
    Stream size                 : 138 MiB (3%)
    Title                       : Español Latino [CinemaniaHDD]
    Language                    : Spanish
    Service kind                : Complete Main
    Default                     : Yes
    Forced                      : No

    Audio #2
    ID                          : 3
    Format                      : E-AC-3
    Format/Info                 : Enhanced AC-3
    Commercial name             : Dolby Digital Plus
    Codec ID                    : A_EAC3
    Duration                    : 50 min 15 s
    Bit rate mode               : Constant
    Bit rate                    : 640 kb/s
    Channel(s)                  : 6 channels
    Channel layout              : L R C LFE Ls Rs
    Sampling rate               : 48.0 kHz
    Frame rate                  : 31.250 FPS (1536 SPF)
    Compression mode            : Lossy
    Stream size                 : 230 MiB (5%)
    Title                       : Inglés [CinemaniaHDD]
    Language                    : English
    Service kind                : Complete Main
    Default                     : No
    Forced                      : No

    Text #1
    ID                          : 4
    Format                      : UTF-8
    Codec ID                    : S_TEXT/UTF8
    Codec ID/Info               : UTF-8 Plain Text
    Duration                    : 1 s 967 ms
    Bit rate                    : 130 b/s
    Count of elements           : 1
    Stream size                 : 32.0 Bytes (0%)
    Title                       : Forzados [CinemaniaHDD]
    Language                    : Spanish
    Default                     : Yes
    Forced                      : Yes

    Text #2
    ID                          : 5
    Format                      : UTF-8
    Codec ID                    : S_TEXT/UTF8
    Codec ID/Info               : UTF-8 Plain Text
    Duration                    : 49 min 13 s
    Bit rate                    : 60 b/s
    Count of elements           : 635
    Stream size                 : 22.0 KiB (0%)
    Title                       : Español Latino [CinemaniaHDD]
    Language                    : Spanish
    Default                     : No
    Forced                      : No

    Text #3
    ID                          : 6
    Format                      : UTF-8
    Codec ID                    : S_TEXT/UTF8
    Codec ID/Info               : UTF-8 Plain Text
    Duration                    : 49 min 41 s
    Bit rate                    : 64 b/s
    Count of elements           : 934
    Stream size                 : 23.4 KiB (0%)
    Title                       : Inglés [CinemaniaHDD]
    Language                    : English
    Default                     : No
    Forced                      : No

     

  • Peso: 4.33 GiB Aprox ---- 45 GiB in 12 Chapters.

Sinopsis

Cuando el apocalipsis zombi ocurre, los residentes de Los Ángeles deben lidiar con los brutales cambios que sus vidas experimentan.

Ficha técnica

Video trailer de la película

Enlaces de descarga

Rip de Bluray

Descargar Fear the Walking Dead (2023) Octava Temporada AMZN WEB-DL 1080p Latino




Aportes de DPeliculasHDmega la pass es:dpeliculashdmega.org Aportes de CinemaniaHD la pass es:cinemaniahdd.com Aportes recientes:cinemaniahdd.net
Guardado en : Action & Adventure , Drama , Series

Películas relacionadas

descargar Fear the Walking Dead (2023) Octava Temporada AMZN WEB-DL 1080p Latino 1080p 1080p gratis, Fear the Walking Dead (2023) Octava Temporada AMZN WEB-DL 1080p Latino 1080p mega 1 link, Fear the Walking Dead (2023) Octava Temporada AMZN WEB-DL 1080p Latino 1080p serie completa, descargar Fear the Walking Dead (2023) Octava Temporada AMZN WEB-DL 1080p Latino 1080p gratis en mega.

Fear the Walking Dead (2023) Octava Temporada AMZN WEB-DL 1080p Latino pelicula full hd, Fear the Walking Dead (2023) Octava Temporada AMZN WEB-DL 1080p Latino mega latino, Fear the Walking Dead (2023) Octava Temporada AMZN WEB-DL 1080p Latino 4k latino, Fear the Walking Dead (2023) Octava Temporada AMZN WEB-DL 1080p Latino pelicula completa, Fear the Walking Dead (2023) Octava Temporada AMZN WEB-DL 1080p Latino descargar gratis, descargar Fear the Walking Dead (2023) Octava Temporada AMZN WEB-DL 1080p Latino pelicula latino, Fear the Walking Dead (2023) Octava Temporada AMZN WEB-DL 1080p Latino 1 link mega, Fear the Walking Dead (2023) Octava Temporada AMZN WEB-DL 1080p Latino 1 link google drive, Fear the Walking Dead (2023) Octava Temporada AMZN WEB-DL 1080p Latino hd 1080p latino.
Comentarios 0