×

¿Problemas para descargar con Mozilla, EDGE? Deshabilita la opción "Abrir vinculos en una pestaña nueva" tal como lo muestra ésta imagen.

Fear the Walking Dead (2021-2022) Septima Temporada AMZN WEB-DL 1080p Latino

2.774 vistas

Información de Fear the Walking Dead (2021-2022) Septima Temporada AMZN WEB-DL 1080p Latino

Datos de la película

  • Calidad: 1080p
  • Audio: Español Latino AC3 2.0 WEB-DL - Ingles AC3 5.1 WEB-DL
  • Subtitulos: Español Latino SRT- FORZADOS SRT
  • Resolución: 1920x1080
  • Formato: MKV
  • Codec: H.264
  • Encoder: cinemaniahdd
  • Mediainfo: Clic para Mostrar Datos Ver
  • Fear The Walking Dead T07E01 AMZN WEB-DL 1080p Latino [CNMNHDD].mkv
    Format                      : Matroska
    Format version              : Version 4
    File size                   : 4.65 GiB
    Duration                    : 46 min 54 s
    Overall bit rate mode       : Variable
    Overall bit rate            : 14.2 Mb/s
    Movie name                  : Fear The Walking Dead T07E01 - CinemaniaHDD.Net
    Encoded date                : UTC 2021-10-19 02:58:51
    Writing application         : mkvmerge v56.1.0 ('My Friend') 64-bit
    Writing library             : libebml v1.4.2 + libmatroska v1.6.4

    Video
    ID                          : 1
    Format                      : AVC
    Format/Info                 : Advanced Video Codec
    Format profile              : High@L4
    Format settings             : CABAC / 4 Ref Frames
    Format settings, CABAC      : Yes
    Format settings, Reference  : 4 frames
    Codec ID                    : V_MPEG4/ISO/AVC
    Duration                    : 46 min 54 s
    Bit rate mode               : Variable
    Bit rate                    : 13.2 Mb/s
    Maximum bit rate            : 40.0 Mb/s
    Width                       : 1 920 pixels
    Height                      : 1 080 pixels
    Display aspect ratio        : 16:9
    Frame rate mode             : Constant
    Frame rate                  : 24.000 FPS
    Color space                 : YUV
    Chroma subsampling          : 4:2:0
    Bit depth                   : 8 bits
    Scan type                   : Progressive
    Bits/(Pixel*Frame)          : 0.265
    Stream size                 : 4.31 GiB (93%)
    Title                       : CinemaniaHDD
    Default                     : Yes
    Forced                      : No
    Color range                 : Limited
    Color primaries             : BT.709
    Transfer characteristics    : BT.709
    Matrix coefficients         : BT.709

    Audio #1
    ID                          : 2
    Format                      : AC-3
    Format/Info                 : Audio Coding 3
    Commercial name             : Dolby Digital
    Codec ID                    : A_AC3
    Duration                    : 46 min 54 s
    Bit rate mode               : Constant
    Bit rate                    : 384 kb/s
    Channel(s)                  : 2 channels
    Channel layout              : L R
    Sampling rate               : 48.0 kHz
    Frame rate                  : 31.250 FPS (1536 SPF)
    Compression mode            : Lossy
    Stream size                 : 129 MiB (3%)
    Title                       : Español latino [CinemaniaHDD]
    Language                    : Spanish
    Service kind                : Complete Main
    Default                     : Yes
    Forced                      : No

    Audio #2
    ID                          : 3
    Format                      : E-AC-3
    Format/Info                 : Enhanced AC-3
    Commercial name             : Dolby Digital Plus
    Codec ID                    : A_EAC3
    Duration                    : 46 min 54 s
    Bit rate mode               : Constant
    Bit rate                    : 640 kb/s
    Channel(s)                  : 6 channels
    Channel layout              : L R C LFE Ls Rs
    Sampling rate               : 48.0 kHz
    Frame rate                  : 31.250 FPS (1536 SPF)
    Compression mode            : Lossy
    Delay relative to video     : 24 ms
    Stream size                 : 215 MiB (5%)
    Title                       : Inglés [CinemaniaHDD]
    Language                    : English
    Service kind                : Complete Main
    Default                     : No
    Forced                      : No

    Text #1
    ID                          : 4
    Format                      : UTF-8
    Codec ID                    : S_TEXT/UTF8
    Codec ID/Info               : UTF-8 Plain Text
    Duration                    : 22 min 49 s
    Bit rate                    : 0 b/s
    Count of elements           : 2
    Stream size                 : 90.0 Bytes (0%)
    Title                       : Forzados [CinemaniaHDD]
    Language                    : Spanish
    Default                     : Yes
    Forced                      : Yes

    Text #2
    ID                          : 5
    Format                      : UTF-8
    Codec ID                    : S_TEXT/UTF8
    Codec ID/Info               : UTF-8 Plain Text
    Duration                    : 43 min 30 s
    Bit rate                    : 42 b/s
    Count of elements           : 467
    Stream size                 : 13.7 KiB (0%)
    Title                       : Español latino [CinemaniaHDD]
    Language                    : Spanish
    Default                     : No
    Forced                      : No

    Text #3
    ID                          : 6
    Format                      : UTF-8
    Codec ID                    : S_TEXT/UTF8
    Codec ID/Info               : UTF-8 Plain Text
    Duration                    : 46 min 18 s
    Bit rate                    : 44 b/s
    Count of elements           : 689
    Stream size                 : 15.1 KiB (0%)
    Title                       : Inglés [CinemaniaHDD]
    Language                    : English
    Default                     : No
    Forced                      : No

     

  • Peso: 4.65 GiB Aprox ---- 62 GiB in 16 Chapters.

Sinopsis

En el seno de una ciudad a la que las personas acuden para escapar, esconder sus secretos y enterrar su pasado, un brote misterioso amenaza con perturbar la poca estabilidad que Madison Clark -asesora escolar de un instituto- y Travis Manawa –profesor de lengua- han conseguido alcanzar.

Ficha técnica

Video trailer de la película

Enlaces de descarga

Rip de Bluray

Descargar Fear the Walking Dead (2021-2022) Septima Temporada AMZN WEB-DL 1080p Latino




Aportes de DPeliculasHDmega la pass es:dpeliculashdmega.org Aportes de CinemaniaHD la pass es:cinemaniahdd.com
Guardado en : Action & Adventure , Drama , Series

Películas relacionadas

Fear the Walking Dead (2021-2022) Septima Temporada AMZN WEB-DL 1080p Latino pelicula full hd, Fear the Walking Dead (2021-2022) Septima Temporada AMZN WEB-DL 1080p Latino mega latino, Fear the Walking Dead (2021-2022) Septima Temporada AMZN WEB-DL 1080p Latino 4k latino, Fear the Walking Dead (2021-2022) Septima Temporada AMZN WEB-DL 1080p Latino pelicula completa, Fear the Walking Dead (2021-2022) Septima Temporada AMZN WEB-DL 1080p Latino descargar gratis, descargar Fear the Walking Dead (2021-2022) Septima Temporada AMZN WEB-DL 1080p Latino pelicula latino, Fear the Walking Dead (2021-2022) Septima Temporada AMZN WEB-DL 1080p Latino 1 link mega, Fear the Walking Dead (2021-2022) Septima Temporada AMZN WEB-DL 1080p Latino 1 link google drive, Fear the Walking Dead (2021-2022) Septima Temporada AMZN WEB-DL 1080p Latino hd 1080p latino.
Comentarios 0