Fear the Walking Dead (2018) Cuarta Temporada [AMZN] WEB-DL 1080p Latino – CMHDD

40 vistas
1 estrella2 estrellas3 estrellas4 estrellas5 estrellas (1 votos, promedio: 5,00 de 5)
Cargando...

Información de Fear the Walking Dead (2018) Cuarta Temporada [AMZN] WEB-DL 1080p Latino – CMHDD

Datos de la película

  • Calidad: WEBDL
  • Audio: Se especifica abajo de la Sinopsis
  • Subtitulos: Español Latino SRT
  • Resolución: 1920x1080p
  • Formato: MKV
  • Codec: H.264
  • Encoder: Dracarys
  • Mediainfo: Clic para Mostrar Datos Ver
  • Format                      : Matroska
    Format version              : Version 4
    File size                   : 3.94 GiB
    Duration                    : 49 min 8 s
    Overall bit rate            : 11.5 Mb/s
    Movie name                  : Fear the Walking Dead (2018) [S04E01] [AMZN] WEB-DL 1080p Latino - CMHDD
    Encoded date                : UTC 2020-09-17 01:29:30
    Writing application         : mkvmerge v46.0.0 ('No Deeper Escape') 64-bit
    Writing library             : libebml v1.3.10 + libmatroska v1.5.2

    Video
    ID                          : 1
    Format                      : AVC
    Format/Info                 : Advanced Video Codec
    Format profile              : High@L4
    Format settings             : CABAC / 4 Ref Frames
    Format settings, CABAC      : Yes
    Format settings, Reference  : 4 frames
    Codec ID                    : V_MPEG4/ISO/AVC
    Duration                    : 49 min 8 s
    Bit rate                    : 10.6 Mb/s
    Width                       : 1 920 pixels
    Height                      : 1 080 pixels
    Display aspect ratio        : 16:9
    Frame rate mode             : Constant
    Frame rate                  : 23.976 (24000/1001) FPS
    Color space                 : YUV
    Chroma subsampling          : 4:2:0
    Bit depth                   : 8 bits
    Scan type                   : Progressive
    Bits/(Pixel*Frame)          : 0.213
    Stream size                 : 3.64 GiB (92%)
    Default                     : Yes
    Forced                      : No
    Color range                 : Limited
    Color primaries             : BT.709
    Transfer characteristics    : BT.709
    Matrix coefficients         : BT.709

    Audio #1
    ID                          : 2
    Format                      : E-AC-3
    Format/Info                 : Enhanced AC-3
    Commercial name             : Dolby Digital Plus
    Codec ID                    : A_EAC3
    Duration                    : 49 min 8 s
    Bit rate mode               : Constant
    Bit rate                    : 224 kb/s
    Channel(s)                  : 2 channels
    Channel layout              : L R
    Sampling rate               : 48.0 kHz
    Frame rate                  : 31.250 FPS (1536 SPF)
    Compression mode            : Lossy
    Stream size                 : 78.7 MiB (2%)
    Language                    : Spanish
    Service kind                : Complete Main
    Default                     : Yes
    Forced                      : No

    Audio #2
    ID                          : 3
    Format                      : E-AC-3
    Format/Info                 : Enhanced AC-3
    Commercial name             : Dolby Digital Plus
    Codec ID                    : A_EAC3
    Duration                    : 49 min 8 s
    Bit rate mode               : Constant
    Bit rate                    : 640 kb/s
    Channel(s)                  : 6 channels
    Channel layout              : L R C LFE Ls Rs
    Sampling rate               : 48.0 kHz
    Frame rate                  : 31.250 FPS (1536 SPF)
    Compression mode            : Lossy
    Stream size                 : 225 MiB (6%)
    Language                    : English
    Service kind                : Complete Main
    Default                     : No
    Forced                      : No

    Text
    ID                          : 4
    Format                      : UTF-8
    Codec ID                    : S_TEXT/UTF8
    Codec ID/Info               : UTF-8 Plain Text
    Duration                    : 48 min 25 s
    Bit rate                    : 31 b/s
    Count of elements           : 417
    Stream size                 : 11.1 KiB (0%)
    Language                    : Spanish
    Default                     : No
    Forced                      : No

  • Peso: 53.5 GiB Total

Sinopsis

En la Temporada 4 de Fear the Walking Dead, los fanáticos verán el mundo de Madison Clark (Kim Dickens) y su familia a través de nuevos ojos: los ojos de Morgan Jones (Lennie James), uniéndose a la historia del mundo de The Walking Dead.

En la nueva temporada, el pasado inmediato de los personajes se mezcla con un presente incierto de lucha y descubrimiento a medida que se encuentran con nuevos amigosenemigos y amenazas. Pelean el uno por el otro, entre sí y contra una legión de muertos, todo para construir de alguna manera una existencia en medio de la aplastante presión de las vidas que se deshacen.

Habrá oscuridad y luz; terror y gracia; los heroicos, los mercenarios y los cobardes, todos chocando juntos hacia una nueva realidad para Fear the Walking Dead.

 

Latino: E-AC3 2.0 AMAZON  –  Ingles: E-AC3 5.1 AMAZON

Ficha técnica

Video trailer de la película

Enlaces de descarga

Rip de Bluray

Descargar Fear the Walking Dead (2018) Cuarta Temporada [AMZN] WEB-DL 1080p Latino – CMHDD




Aportes de DPeliculasHDmega la pass es:dpeliculashdmega.org Aportes de CinemaniaHD la pass es:cinemaniahdd.com
Guardado en : Action & Adventure , Drama

Películas relacionadas

Comentarios 0