Fear the Walking Dead (2016) Segunda Temporada [AMZN] WEB-DL 1080p Latino – CMHDD

36 vistas
1 estrella2 estrellas3 estrellas4 estrellas5 estrellas (1 votos, promedio: 5,00 de 5)
Cargando...

Información de Fear the Walking Dead (2016) Segunda Temporada [AMZN] WEB-DL 1080p Latino – CMHDD

Datos de la película

  • Calidad: WEBDL
  • Audio: Se especifica abajo de la Sinopsis
  • Subtitulos: Español Latino SRT
  • Resolución: 1920x1080p
  • Formato: MKV
  • Codec: H.264
  • Encoder: Dracarys
  • Mediainfo: Clic para Mostrar Datos Ver
  • Format                      : Matroska
    Format version              : Version 4
    File size                   : 3.14 GiB
    Duration                    : 42 min 51 s
    Overall bit rate            : 10.5 Mb/s
    Movie name                  : Fear the Walking Dead (2016) [S02E01] [AMZN] WEB-DL 1080p Latino - CMHDD
    Encoded date                : UTC 2020-09-16 00:52:33
    Writing application         : mkvmerge v46.0.0 ('No Deeper Escape') 64-bit
    Writing library             : libebml v1.3.10 + libmatroska v1.5.2

    Video
    ID                          : 1
    Format                      : AVC
    Format/Info                 : Advanced Video Codec
    Format profile              : High@L4
    Format settings             : CABAC / 4 Ref Frames
    Format settings, CABAC      : Yes
    Format settings, Reference  : 4 frames
    Codec ID                    : V_MPEG4/ISO/AVC
    Duration                    : 42 min 51 s
    Bit rate                    : 9 612 kb/s
    Width                       : 1 920 pixels
    Height                      : 1 080 pixels
    Display aspect ratio        : 16:9
    Frame rate mode             : Constant
    Frame rate                  : 23.976 (24000/1001) FPS
    Color space                 : YUV
    Chroma subsampling          : 4:2:0
    Bit depth                   : 8 bits
    Scan type                   : Progressive
    Bits/(Pixel*Frame)          : 0.193
    Stream size                 : 2.88 GiB (92%)
    Default                     : Yes
    Forced                      : No
    Color range                 : Limited
    Color primaries             : BT.709
    Transfer characteristics    : BT.709
    Matrix coefficients         : BT.709

    Audio #1
    ID                          : 2
    Format                      : E-AC-3
    Format/Info                 : Enhanced AC-3
    Commercial name             : Dolby Digital Plus
    Codec ID                    : A_EAC3
    Duration                    : 42 min 51 s
    Bit rate mode               : Constant
    Bit rate                    : 224 kb/s
    Channel(s)                  : 2 channels
    Channel layout              : L R
    Sampling rate               : 48.0 kHz
    Frame rate                  : 31.250 FPS (1536 SPF)
    Compression mode            : Lossy
    Stream size                 : 68.7 MiB (2%)
    Language                    : Spanish
    Service kind                : Complete Main
    Default                     : Yes
    Forced                      : No

    Audio #2
    ID                          : 3
    Format                      : E-AC-3
    Format/Info                 : Enhanced AC-3
    Commercial name             : Dolby Digital Plus
    Codec ID                    : A_EAC3
    Duration                    : 42 min 51 s
    Bit rate mode               : Constant
    Bit rate                    : 640 kb/s
    Channel(s)                  : 6 channels
    Channel layout              : L R C LFE Ls Rs
    Sampling rate               : 48.0 kHz
    Frame rate                  : 31.250 FPS (1536 SPF)
    Compression mode            : Lossy
    Stream size                 : 196 MiB (6%)
    Language                    : English
    Service kind                : Complete Main
    Default                     : No
    Forced                      : No

    Text
    ID                          : 4
    Format                      : UTF-8
    Codec ID                    : S_TEXT/UTF8
    Codec ID/Info               : UTF-8 Plain Text
    Duration                    : 41 min 29 s
    Bit rate                    : 45 b/s
    Count of elements           : 445
    Stream size                 : 13.7 KiB (0%)
    Language                    : Spanish
    Default                     : No
    Forced                      : No

  • Peso: 52.0 GiB Total

Sinopsis

La familia Clark consigue evitar el asalto zombie. El barco de Strand, el Abigail, ha alejado a la familia del terreno firme. Convencidos de que aún existe un lugar en el que las condiciones de vida sean intactas, los Clark avanzan con esperanza en el navío.

Las cosas se ponen difíciles para ellos cuando la Operación Cobalto entra en juego. Los bombardeos de los militares en el Sur de California provocan que los muertos abandonen su lugar de ocupación. Las familias comandadas por Madison, Travis y Daniel serán entonces conscientes de la terrible realidad: el mar no es más seguro que la tierra.

 

Latino: E-AC3 2.0 AMAZON  –  Ingles: E-AC3 5.1 AMAZON

Ficha técnica

Video trailer de la película

Enlaces de descarga

Rip de Bluray

Descargar Fear the Walking Dead (2016) Segunda Temporada [AMZN] WEB-DL 1080p Latino – CMHDD




Aportes de DPeliculasHDmega la pass es:dpeliculashdmega.org Aportes de CinemaniaHD la pass es:cinemaniahdd.com
Guardado en : Action & Adventure , Drama

Películas relacionadas

Comentarios 0