Fear the Walking Dead (2015) Primera Temporada [AMZN] WEB-DL 1080p Latino – CMHDD

46 vistas
1 estrella2 estrellas3 estrellas4 estrellas5 estrellas (1 votos, promedio: 5,00 de 5)
Cargando...

Información de Fear the Walking Dead (2015) Primera Temporada [AMZN] WEB-DL 1080p Latino – CMHDD

Datos de la película

  • Calidad: WEBDL
  • Audio: Se especifica abajo de la Sinopsis
  • Subtitulos: Español Latino SRT
  • Resolución: 1920x1080p
  • Formato: MKV
  • Codec: H.264
  • Encoder: Dracarys
  • Mediainfo: Clic para Mostrar Datos Ver
  • Format                      : Matroska
    Format version              : Version 4
    File size                   : 3.04 GiB
    Duration                    : 42 min 53 s
    Overall bit rate            : 10.2 Mb/s
    Movie name                  : Fear the Walking Dead (2015) [S01E02] [AMZN] WEB-DL 1080p Latino - CMHDD
    Encoded date                : UTC 2020-09-16 00:47:17
    Writing application         : mkvmerge v46.0.0 ('No Deeper Escape') 64-bit
    Writing library             : libebml v1.3.10 + libmatroska v1.5.2

    Video
    ID                          : 1
    Format                      : AVC
    Format/Info                 : Advanced Video Codec
    Format profile              : High@L4
    Format settings             : CABAC / 4 Ref Frames
    Format settings, CABAC      : Yes
    Format settings, Reference  : 4 frames
    Codec ID                    : V_MPEG4/ISO/AVC
    Duration                    : 42 min 53 s
    Bit rate                    : 9 285 kb/s
    Width                       : 1 920 pixels
    Height                      : 1 080 pixels
    Display aspect ratio        : 16:9
    Frame rate mode             : Constant
    Frame rate                  : 23.976 (24000/1001) FPS
    Color space                 : YUV
    Chroma subsampling          : 4:2:0
    Bit depth                   : 8 bits
    Scan type                   : Progressive
    Bits/(Pixel*Frame)          : 0.187
    Stream size                 : 2.78 GiB (91%)
    Default                     : Yes
    Forced                      : No
    Color range                 : Limited
    Color primaries             : BT.709
    Transfer characteristics    : BT.709
    Matrix coefficients         : BT.709

    Audio #1
    ID                          : 2
    Format                      : E-AC-3
    Format/Info                 : Enhanced AC-3
    Commercial name             : Dolby Digital Plus
    Codec ID                    : A_EAC3
    Duration                    : 42 min 53 s
    Bit rate mode               : Constant
    Bit rate                    : 224 kb/s
    Channel(s)                  : 2 channels
    Channel layout              : L R
    Sampling rate               : 48.0 kHz
    Frame rate                  : 31.250 FPS (1536 SPF)
    Compression mode            : Lossy
    Stream size                 : 68.7 MiB (2%)
    Language                    : Spanish
    Service kind                : Complete Main
    Default                     : Yes
    Forced                      : No

    Audio #2
    ID                          : 3
    Format                      : E-AC-3
    Format/Info                 : Enhanced AC-3
    Commercial name             : Dolby Digital Plus
    Codec ID                    : A_EAC3
    Duration                    : 42 min 53 s
    Bit rate mode               : Constant
    Bit rate                    : 640 kb/s
    Channel(s)                  : 6 channels
    Channel layout              : L R C LFE Ls Rs
    Sampling rate               : 48.0 kHz
    Frame rate                  : 31.250 FPS (1536 SPF)
    Compression mode            : Lossy
    Stream size                 : 196 MiB (6%)
    Language                    : English
    Service kind                : Complete Main
    Default                     : No
    Forced                      : No

    Text
    ID                          : 4
    Format                      : UTF-8
    Codec ID                    : S_TEXT/UTF8
    Codec ID/Info               : UTF-8 Plain Text
    Duration                    : 39 min 49 s
    Bit rate                    : 42 b/s
    Count of elements           : 408
    Stream size                 : 12.4 KiB (0%)
    Language                    : Spanish
    Default                     : No
    Forced                      : No

  • Peso: 20,6 GiB Total

Sinopsis

Fear The Walking Dead es una serie dramática, spin-off de la producción de AMC, The Walking Dead. Esta serie, ambientada en Los Ángeles, California, explora el inicio del apocalipsis zombi desde el punto de vista de una familia desestructurada.

Dicha familia está formada por una consejera de estudiantes llamada Madison Clark (Kim Dickens); su novio, Travis Manawa (Cliff Curtis), un profesor de inglés divorciado; su hija Alicia (Alycia Debnam-Carey); y su hijo de 19 años, Nick (Frank Dillane), adicto a la heroína. Ante el brote de un misterioso virus y la aparición de caminantes infectados, es necesario buscar la supervivencia. Así, cuando la sociedad empieza a desmoronarse, esta familia deberá adaptarse para sobrevivir o aferrarse a sus más grandes defectos para sobrevivir al inevitable colapso de la civilización.

Esta serie no está basada en la novela gráfica de ‘The Walking Dead’ y cuenta con una historia independiente incluso a la serie de la televisión de la que deriva. La producción está a cargo de Robert Kirkman, Gale Anne Hurd y David Alpert.

 

Latino: E-AC3 2.0 AMAZON  –  Ingles: E-AC3 5.1 AMAZON

Ficha técnica

Video trailer de la película

Enlaces de descarga

Rip de Bluray

Descargar Fear the Walking Dead (2015) Primera Temporada [AMZN] WEB-DL 1080p Latino – CMHDD




Aportes de DPeliculasHDmega la pass es:dpeliculashdmega.org Aportes de CinemaniaHD la pass es:cinemaniahdd.com
Guardado en : Action & Adventure , Drama

Películas relacionadas

Comentarios 2
  • Matias22 - 18 septiembre, 2020

    IMPOSIBLE DE DESCARGAR.. GOOGLE DRIVE NO SE PUEDE HACER UNA COPIA, MEGA HASTA 1 GB BAJA, Y 1FICHER SE CAE LA DESCARGA A LA MITAD

    • CinemaniaHDD - 19 septiembre, 2020

      Compre acceso VIP. tambien puede comprar acceso premium en MEGA o 1FICHIER y listo