×

¿Problemas para descargar con Mozilla, EDGE? Deshabilita la opción "Abrir vinculos en una pestaña nueva" tal como lo muestra ésta imagen.

Fear City: New York vs The Mafia (2020) Temporada 1 NF WEB-DL 1080p Latino

387 vistas

Información de Fear City: New York vs The Mafia (2020) Temporada 1 NF WEB-DL 1080p Latino

Datos de la película

  • Calidad: WEBDL
  • Audio: Español Latino AC3 5.1 Netflix - Ingles AC3 5.1 Netflix
  • Subtitulos: Español Latino SRT- FORZADOS SRT
  • Resolución: 1920x1080
  • Formato: MKV
  • Codec: H.264
  • Encoder: cinemaniahdd
  • Mediainfo: Clic para Mostrar Datos Ver
  • Fear City, New York vs The Mafia T01E01 NF WEB-DL 1080p Latino [CNMNHDD].mkv
    Format                      : Matroska
    Format version              : Version 4
    File size                   : 2.78 GiB
    Duration                    : 48 min 45 s
    Overall bit rate mode       : Variable
    Overall bit rate            : 8 154 kb/s
    Movie name                  : Fear City, New York vs The Mafia T01E01 - CinemaniaHDD.Net
    Encoded date                : UTC 2020-07-23 00:02:08
    Writing application         : mkvmerge v30.1.0 ('Forever And More') 64-bit
    Writing library             : libebml v1.3.6 + libmatroska v1.4.9 / Lavf58.28.101

    Video
    ID                          : 1
    Format                      : AVC
    Format/Info                 : Advanced Video Codec
    Format profile              : Main@L4
    Format settings             : CABAC / 3 Ref Frames
    Format settings, CABAC      : Yes
    Format settings, Reference  : 3 frames
    Codec ID                    : V_MPEG4/ISO/AVC
    Duration                    : 48 min 45 s
    Bit rate mode               : Variable
    Bit rate                    : 7 500 kb/s
    Maximum bit rate            : 11.2 Mb/s
    Width                       : 1 920 pixels
    Height                      : 1 080 pixels
    Display aspect ratio        : 16:9
    Frame rate mode             : Constant
    Frame rate                  : 23.976 (24000/1001) FPS
    Color space                 : YUV
    Chroma subsampling          : 4:2:0
    Bit depth                   : 8 bits
    Scan type                   : Progressive
    Bits/(Pixel*Frame)          : 0.151
    Stream size                 : 2.51 GiB (90%)
    Title                       : CinemaniaHDD.Net
    Writing library             : x264 core 148 r2721 6d200cf
    Encoding settings           : cabac=1 / ref=3 / deblock=1:0:0 / analyse=0x1:0x111 / me=umh / subme=10 / psy=1 / psy_rd=1.00:0.00 / mixed_ref=1 / me_range=24 / chroma_me=1 / trellis=2 / 8x8dct=0 / cqm=0 / deadzone=21,11 / fast_pskip=1 / chroma_qp_offset=-2 / threads=8 / lookahead_threads=1 / sliced_threads=0 / nr=0 / decimate=1 / interlaced=0 / bluray_compat=0 / stitchable=1 / constrained_intra=0 / bframes=2 / b_pyramid=0 / b_adapt=2 / b_bias=0 / direct=3 / weightb=1 / open_gop=0 / weightp=2 / keyint=250 / keyint_min=23 / scenecut=0 / intra_refresh=0 / rc_lookahead=48 / rc=2pass / mbtree=1 / bitrate=7500 / ratetol=1.0 / qcomp=0.50 / qpmin=6 / qpmax=51 / qpstep=4 / cplxblur=20.0 / qblur=0.5 / vbv_maxrate=11250 / vbv_bufsize=15000 / nal_hrd=vbr / filler=0 / ip_ratio=1.40 / aq=1:1.00
    Default                     : Yes
    Forced                      : No

    Audio #1
    ID                          : 2
    Format                      : AC-3
    Format/Info                 : Audio Coding 3
    Commercial name             : Dolby Digital
    Codec ID                    : A_AC3
    Duration                    : 48 min 45 s
    Bit rate mode               : Constant
    Bit rate                    : 384 kb/s
    Channel(s)                  : 6 channels
    Channel layout              : L R C LFE Ls Rs
    Sampling rate               : 48.0 kHz
    Frame rate                  : 31.250 FPS (1536 SPF)
    Compression mode            : Lossy
    Stream size                 : 134 MiB (5%)
    Title                       : Español latino [CinemaniaHDD]
    Language                    : Spanish
    Service kind                : Complete Main
    Default                     : Yes
    Forced                      : No

    Audio #2
    ID                          : 3
    Format                      : AC-3
    Format/Info                 : Audio Coding 3
    Commercial name             : Dolby Digital
    Codec ID                    : A_AC3
    Duration                    : 48 min 45 s
    Bit rate mode               : Constant
    Bit rate                    : 384 kb/s
    Channel(s)                  : 6 channels
    Channel layout              : L R C LFE Ls Rs
    Sampling rate               : 48.0 kHz
    Frame rate                  : 31.250 FPS (1536 SPF)
    Compression mode            : Lossy
    Stream size                 : 134 MiB (5%)
    Title                       : Inglés [CinemaniaHDD]
    Language                    : English
    Service kind                : Complete Main
    Default                     : No
    Forced                      : No

  • Peso: 2.78 GiB C/U APROX --- 8 GiB in 3 chater

Sinopsis

Cinco familias de la mafia gobernaron Nueva York con un puño sangriento en las décadas de 1970 y 1980, hasta que un grupo de agentes federales intentó lo impensable: derribarlos.

Ficha técnica

Video trailer de la película

Enlaces de descarga

Rip de Bluray

Descargar Fear City: New York vs The Mafia (2020) Temporada 1 NF WEB-DL 1080p Latino




Aportes de DPeliculasHDmega la pass es:dpeliculashdmega.org Aportes de CinemaniaHD la pass es:cinemaniahdd.com Aportes recientes:cinemaniahdd.net
Guardado en : Crimen , Documental , Netflix , Series

Películas relacionadas

  • Scream (1996) Full HD 1080p Latino

    Scream (1996) Full HD 1080p Latino

    1996
    Scream (1996) Full HD 1080p Latino

    1h 51m 1996

    Descargar Scream (1996) Full HD 1080p Latino. Sidney Prescott, una adolescente de la pequeña comunidad...

    Director: Wes Craven

    Género: Crimen

    Actores: Wes Craven

  • Scream (1996) REMUX 1080p Latino

    Scream (1996) REMUX 1080p Latino

    1996
    Scream (1996) REMUX 1080p Latino

    1h 51m 1996

    Descargar Scream (1996) REMUX 1080p Latino. Sidney Prescott, una adolescente de la pequeña comunidad...

    Director: Wes Craven

    Género: Crimen

    Actores: Wes Craven

descargar Fear City: New York vs The Mafia (2020) Temporada 1 NF WEB-DL 1080p Latino WEBDL 1080p gratis, Fear City: New York vs The Mafia (2020) Temporada 1 NF WEB-DL 1080p Latino WEBDL mega 1 link, Fear City: New York vs The Mafia (2020) Temporada 1 NF WEB-DL 1080p Latino WEBDL serie completa, descargar Fear City: New York vs The Mafia (2020) Temporada 1 NF WEB-DL 1080p Latino WEBDL gratis en mega.

Fear City: New York vs The Mafia (2020) Temporada 1 NF WEB-DL 1080p Latino pelicula full hd, Fear City: New York vs The Mafia (2020) Temporada 1 NF WEB-DL 1080p Latino mega latino, Fear City: New York vs The Mafia (2020) Temporada 1 NF WEB-DL 1080p Latino 4k latino, Fear City: New York vs The Mafia (2020) Temporada 1 NF WEB-DL 1080p Latino pelicula completa, Fear City: New York vs The Mafia (2020) Temporada 1 NF WEB-DL 1080p Latino descargar gratis, descargar Fear City: New York vs The Mafia (2020) Temporada 1 NF WEB-DL 1080p Latino pelicula latino, Fear City: New York vs The Mafia (2020) Temporada 1 NF WEB-DL 1080p Latino 1 link mega, Fear City: New York vs The Mafia (2020) Temporada 1 NF WEB-DL 1080p Latino 1 link google drive, Fear City: New York vs The Mafia (2020) Temporada 1 NF WEB-DL 1080p Latino hd 1080p latino.
Comentarios 0