×

¿Problemas para descargar con Mozilla, EDGE? Deshabilita la opción "Abrir vinculos en una pestaña nueva" tal como lo muestra ésta imagen.

Fear (1996) REMUX 1080p Latino – CMHDD

166 vistas

Información de Fear (1996) REMUX 1080p Latino – CMHDD

Datos de la película

  • Calidad: Full 1080p
  • Audio: Español Latino DTS 2.0 BLURAY - Ingles DTS 5.1 BLURAY
  • Subtitulos: Español Latino PGS
  • Resolución: 19201080p
  • Formato: MKV
  • Codec: H.264
  • Encoder: Dracarys
  • Mediainfo: Clic para Mostrar Datos Ver
  • Format                      : Matroska
    Format version              : Version 4
    File size                   : 22.3 GiB
    Duration                    : 1 h 36 min
    Overall bit rate mode       : Variable
    Overall bit rate            : 32.9 Mb/s
    Movie name                  : Fear (1996) REMUX 1080p Latino - CMHDD
    Encoded date                : UTC 2023-11-26 02:05:49
    Writing application         : mkvmerge v47.0.0 ('Black Flag') 64-bit
    Writing library             : libebml v1.3.10 + libmatroska v1.5.2

    Video
    ID                          : 1
    Format                      : VC-1
    Format profile              : Advanced@L3
    Codec ID                    : V_MS/VFW/FOURCC / WVC1
    Codec ID/Hint               : Microsoft
    Duration                    : 1 h 36 min
    Bit rate                    : 29.3 Mb/s
    Width                       : 1 920 pixels
    Height                      : 1 080 pixels
    Display aspect ratio        : 16:9
    Frame rate mode             : Constant
    Frame rate                  : 23.976 (24000/1001) FPS
    Color space                 : YUV
    Chroma subsampling          : 4:2:0
    Bit depth                   : 8 bits
    Scan type                   : Progressive
    Compression mode            : Lossy
    Bits/(Pixel*Frame)          : 0.590
    Stream size                 : 19.8 GiB (89%)
    Default                     : No
    Forced                      : No

    Audio #1
    ID                          : 2
    Format                      : DTS
    Format/Info                 : Digital Theater Systems
    Codec ID                    : A_DTS
    Duration                    : 1 h 36 min
    Bit rate mode               : Constant
    Bit rate                    : 768 kb/s
    Channel(s)                  : 2 channels
    Channel layout              : Lt Rt
    Sampling rate               : 48.0 kHz
    Frame rate                  : 93.750 FPS (512 SPF)
    Bit depth                   : 24 bits
    Compression mode            : Lossy
    Stream size                 : 532 MiB (2%)
    Language                    : Spanish
    Default                     : Yes
    Forced                      : No

    Audio #2
    ID                          : 3
    Format                      : DTS XLL
    Format/Info                 : Digital Theater Systems
    Commercial name             : DTS-HD Master Audio
    Codec ID                    : A_DTS
    Duration                    : 1 h 36 min
    Bit rate mode               : Variable
    Bit rate                    : 2 824 kb/s
    Channel(s)                  : 6 channels
    Channel layout              : C L R Ls Rs LFE
    Sampling rate               : 48.0 kHz
    Frame rate                  : 93.750 FPS (512 SPF)
    Bit depth                   : 24 bits
    Compression mode            : Lossless
    Stream size                 : 1.91 GiB (9%)
    Language                    : English
    Default                     : No
    Forced                      : No

    Text #1
    ID                          : 4
    Format                      : PGS
    Muxing mode                 : zlib
    Codec ID                    : S_HDMV/PGS
    Codec ID/Info               : Picture based subtitle format used on BDs/HD-DVDs
    Duration                    : 1 h 30 min
    Bit rate                    : 22.6 kb/s
    Frame rate                  : 0.310 FPS
    Count of elements           : 1678
    Stream size                 : 14.6 MiB (0%)
    Language                    : Spanish
    Default                     : No
    Forced                      : No

    Text #2
    ID                          : 5
    Format                      : PGS
    Muxing mode                 : zlib
    Codec ID                    : S_HDMV/PGS
    Codec ID/Info               : Picture based subtitle format used on BDs/HD-DVDs
    Duration                    : 16 min 28 s
    Bit rate                    : 346 b/s
    Frame rate                  : 0.004 FPS
    Count of elements           : 4
    Stream size                 : 41.9 KiB (0%)
    Language                    : Spanish
    Default                     : Yes
    Forced                      : No

    Menu
    00:00:00.000                : en:00:00:00.000
    00:04:48.705                : en:00:04:48.705
    00:11:06.123                : en:00:11:06.123
    00:15:12.036                : en:00:15:12.036
    00:19:51.815                : en:00:19:51.815
    00:21:52.644                : en:00:21:52.644
    00:30:55.812                : en:00:30:55.812
    00:35:03.434                : en:00:35:03.434
    00:39:53.099                : en:00:39:53.099
    00:48:01.295                : en:00:48:01.295
    00:52:12.629                : en:00:52:12.629
    00:59:25.103                : en:00:59:25.103
    01:05:07.069                : en:01:05:07.069
    01:09:29.290                : en:01:09:29.290
    01:15:18.222                : en:01:15:18.222
    01:22:02.292                : en:01:22:02.292
    01:26:38.276                : en:01:26:38.276
    01:32:29.502                : en:01:32:29.502

     

  • Peso: 22.3 GiB

Sinopsis

Nicole Walker es una bella joven de 16 años que vive con su padre, su madrastra y su hermanastro. Una noche al salir a una fiesta con su mejor amiga, conoce a David en una discoteca, y desde esa noche comienzan una tórrida relación adolescente. En un comienzo todo va muy bien porque David parece encanatador, pero poco a poco David, a raíz de los celos y de la pésima relación con el padre de ella, empieza a mostrar su verdera personalidad hasta convertirse en una pesadilla para Nicole y toda su familia.
Cuenado Nicole decide terminar con David provocará el despertar del psicópata que él lleva adentro pues él jamás aceptará esta decisión, desembocando todo en un final trágico.

Ficha técnica

Video trailer de la película

Enlaces de descarga

Rip de Bluray

Descargar Fear (1996) REMUX 1080p Latino – CMHDD




Aportes de DPeliculasHDmega la pass es:dpeliculashdmega.org Aportes de CinemaniaHD la pass es:cinemaniahdd.com Aportes recientes:cinemaniahdd.net
Guardado en : Suspenso

Películas relacionadas

descargar Fear (1996) REMUX 1080p Latino – CMHDD Full 1080p 1080p gratis, Fear (1996) REMUX 1080p Latino – CMHDD Full 1080p mega 1 link, Fear (1996) REMUX 1080p Latino – CMHDD Full 1080p pelicula completa, descargar Fear (1996) REMUX 1080p Latino – CMHDD Full 1080p gratis en mega.

Fear (1996) REMUX 1080p Latino – CMHDD pelicula full hd, Fear (1996) REMUX 1080p Latino – CMHDD mega latino, Fear (1996) REMUX 1080p Latino – CMHDD 4k latino, Fear (1996) REMUX 1080p Latino – CMHDD pelicula completa, Fear (1996) REMUX 1080p Latino – CMHDD descargar gratis, descargar Fear (1996) REMUX 1080p Latino – CMHDD pelicula latino, Fear (1996) REMUX 1080p Latino – CMHDD 1 link mega, Fear (1996) REMUX 1080p Latino – CMHDD 1 link google drive, Fear (1996) REMUX 1080p Latino – CMHDD hd 1080p latino.
Comentarios 0