×

¿Problemas para descargar con Mozilla, EDGE? Deshabilita la opción "Abrir vinculos en una pestaña nueva" tal como lo muestra ésta imagen.

FBI: Internacional (2021-2022) Temporada 1 AMZN WEB-DL 1080p Latino

2.086 vistas

Información de FBI: Internacional (2021-2022) Temporada 1 AMZN WEB-DL 1080p Latino

Datos de la película

  • Calidad: 1080p
  • Audio: Español Latino AC3 2.0 WEB-DL - Ingles AC3 5.1 WEB-DL
  • Subtitulos: Español Latino SRT- FORZADOS SRT
  • Resolución: 1920x1080
  • Formato: MKV
  • Codec: H.264
  • Encoder: cinemaniahdd
  • Mediainfo: Clic para Mostrar Datos Ver
  • FBI. International T01E01 AMZN WEB-DL 1080p Latino [CNMNHDD].mkv
    Format                      : Matroska
    Format version              : Version 4
    File size                   : 3.08 GiB
    Duration                    : 42 min 51 s
    Overall bit rate            : 10.3 Mb/s
    Movie name                  : FBI. International T01E01 - CinemaniaHDD.Net
    Encoded date                : UTC 2022-01-27 00:32:13
    Writing application         : mkvmerge v56.1.0 ('My Friend') 64-bit
    Writing library             : libebml v1.4.2 + libmatroska v1.6.4

    Video
    ID                          : 1
    Format                      : AVC
    Format/Info                 : Advanced Video Codec
    Format profile              : High@L4
    Format settings             : CABAC / 4 Ref Frames
    Format settings, CABAC      : Yes
    Format settings, Reference  : 4 frames
    Codec ID                    : V_MPEG4/ISO/AVC
    Duration                    : 42 min 51 s
    Bit rate mode               : Constant
    Bit rate                    : 9 269 kb/s
    Nominal bit rate            : 10 000 kb/s
    Width                       : 1 920 pixels
    Height                      : 1 080 pixels
    Display aspect ratio        : 16:9
    Frame rate mode             : Constant
    Frame rate                  : 24.000 FPS
    Color space                 : YUV
    Chroma subsampling          : 4:2:0
    Bit depth                   : 8 bits
    Scan type                   : Progressive
    Bits/(Pixel*Frame)          : 0.186
    Stream size                 : 2.77 GiB (90%)
    Title                       : CinemaniaHDD
    Default                     : Yes
    Forced                      : No
    Color range                 : Limited
    Color primaries             : BT.709
    Transfer characteristics    : BT.709
    Matrix coefficients         : BT.709

    Audio #1
    ID                          : 2
    Format                      : AC-3
    Format/Info                 : Audio Coding 3
    Commercial name             : Dolby Digital
    Codec ID                    : A_AC3
    Duration                    : 42 min 51 s
    Bit rate mode               : Constant
    Bit rate                    : 384 kb/s
    Channel(s)                  : 2 channels
    Channel layout              : L R
    Sampling rate               : 48.0 kHz
    Frame rate                  : 31.250 FPS (1536 SPF)
    Compression mode            : Lossy
    Stream size                 : 118 MiB (4%)
    Title                       : Español latino [CinemaniaHDD]
    Language                    : Spanish
    Service kind                : Complete Main
    Default                     : Yes
    Forced                      : No

    Audio #2
    ID                          : 3
    Format                      : E-AC-3
    Format/Info                 : Enhanced AC-3
    Commercial name             : Dolby Digital Plus
    Codec ID                    : A_EAC3
    Duration                    : 42 min 51 s
    Bit rate mode               : Constant
    Bit rate                    : 640 kb/s
    Channel(s)                  : 6 channels
    Channel layout              : L R C LFE Ls Rs
    Sampling rate               : 48.0 kHz
    Frame rate                  : 31.250 FPS (1536 SPF)
    Compression mode            : Lossy
    Stream size                 : 196 MiB (6%)
    Title                       : Inglés [CinemaniaHDD]
    Language                    : English
    Service kind                : Complete Main
    Default                     : No
    Forced                      : No

    Text #1
    ID                          : 4
    Format                      : UTF-8
    Codec ID                    : S_TEXT/UTF8
    Codec ID/Info               : UTF-8 Plain Text
    Duration                    : 22 min 7 s
    Bit rate                    : 0 b/s
    Count of elements           : 3
    Stream size                 : 70.0 Bytes (0%)
    Title                       : Forzados [CinemaniaHDD]
    Language                    : Spanish
    Default                     : Yes
    Forced                      : Yes

    Text #2
    ID                          : 5
    Format                      : UTF-8
    Codec ID                    : S_TEXT/UTF8
    Codec ID/Info               : UTF-8 Plain Text
    Duration                    : 42 min 2 s
    Bit rate                    : 58 b/s
    Count of elements           : 543
    Stream size                 : 18.1 KiB (0%)
    Title                       : Español latino [CinemaniaHDD]
    Language                    : Spanish
    Default                     : No
    Forced                      : No

    Text #3
    ID                          : 6
    Format                      : UTF-8
    Codec ID                    : S_TEXT/UTF8
    Codec ID/Info               : UTF-8 Plain Text
    Duration                    : 42 min 7 s
    Bit rate                    : 65 b/s
    Count of elements           : 674
    Stream size                 : 20.1 KiB (0%)
    Title                       : Inglés [CinemaniaHDD]
    Language                    : English
    Default                     : No
    Forced                      : No

     

  • Peso: 3.08 GiB C/U --- 16 CAPITULOS AGREGADOS

Sinopsis

Siga a los agentes de élite del International Fly Team del FBI mientras viajan por el mundo con la misión de proteger a los estadounidenses dondequiera que estén.

16 CAPITULOS AGREGADOS

Ficha técnica

Video trailer de la película

Enlaces de descarga

Rip de Bluray

Descargar FBI: Internacional (2021-2022) Temporada 1 AMZN WEB-DL 1080p Latino




Aportes de DPeliculasHDmega la pass es:dpeliculashdmega.org Aportes de CinemaniaHD la pass es:cinemaniahdd.com
Guardado en : Crimen , Drama , Series

Películas relacionadas

  • Obi-Wan Kenobi (2022) Temporada 1 WEB-DL 1080p Latino

    Obi-Wan Kenobi (2022) Temporada 1 WEB-DL 1080p Latino

    2022
    Obi-Wan Kenobi (2022) Temporada 1 WEB-DL 1080p Latino

    0h 0m 2022

    Obi-Wan Kenobi (2022) Temporada 1 WEB-DL 1080p Latino. Miniserie de TV basada en la figura de Obi-Wan...

    Director: Joby Harold

    Género: Action & Adventure

    Actores: Vivien Lyra Blair

  • Warning (2021) PLACEBO Full HD 1080p Latino

    Warning (2021) PLACEBO Full HD 1080p Latino

    2021
    Warning (2021) PLACEBO Full HD 1080p Latino

    1h 25m 2021

    Descargar Warning (2021) PLACEBO Full HD 1080p Latino. Ambientada en un futuro no muy lejano, la obra...

    Director: Agata Alexander

    Género: Ciencia ficción

    Actores: Toni Garrn

  • Warning (2021) REMUX 1080p Latino

    Warning (2021) REMUX 1080p Latino

    2021
    Warning (2021) REMUX 1080p Latino

    1h 25m 2021

    Descargar Warning (2021) REMUX 1080p Latino. Ambientada en un futuro no muy lejano, la obra reflexiona...

    Director: Agata Alexander

    Género: Ciencia ficción

    Actores: Toni Garrn

FBI: Internacional (2021-2022) Temporada 1 AMZN WEB-DL 1080p Latino pelicula full hd, FBI: Internacional (2021-2022) Temporada 1 AMZN WEB-DL 1080p Latino mega latino, FBI: Internacional (2021-2022) Temporada 1 AMZN WEB-DL 1080p Latino 4k latino, FBI: Internacional (2021-2022) Temporada 1 AMZN WEB-DL 1080p Latino pelicula completa, FBI: Internacional (2021-2022) Temporada 1 AMZN WEB-DL 1080p Latino descargar gratis, descargar FBI: Internacional (2021-2022) Temporada 1 AMZN WEB-DL 1080p Latino pelicula latino, FBI: Internacional (2021-2022) Temporada 1 AMZN WEB-DL 1080p Latino 1 link mega, FBI: Internacional (2021-2022) Temporada 1 AMZN WEB-DL 1080p Latino 1 link google drive, FBI: Internacional (2021-2022) Temporada 1 AMZN WEB-DL 1080p Latino hd 1080p latino.
Comentarios 2
  • condorito - 22 mayo, 2022

    hola bro los capitulos 14 estan repetidos
    faltaria por lo tanto el capitulo 15

    • CinemaniaHDD - 24 mayo, 2022

      Hola, solucionado.