×

¿Problemas para descargar con Mozilla, EDGE? Deshabilita la opción "Abrir vinculos en una pestaña nueva" tal como lo muestra ésta imagen.

El Padre De La Novia 2: Ahora También Abuelo (1995) REMUX 1080p Latino

180 vistas

Información de El Padre De La Novia 2: Ahora También Abuelo (1995) REMUX 1080p Latino

Datos de la película

  • Calidad: Full 1080p
  • Audio: Se especifica abajo de la Sinopsis
  • Subtitulos: Español Latino SRT- FORZADOS SRT
  • Resolución: 1920x1080p
  • Formato: MKV
  • Codec: H.264
  • Encoder: CinefiloCool
  • Mediainfo: Clic para Mostrar Datos Ver
  • El Padre De La Novia Parte II (1995) REMUX 1080p Latino-CMHDD.mkv
    Format                      : Matroska
    Format version              : Version 4
    File size                   : 19.9 GiB
    Duration                    : 1 h 46 min
    Overall bit rate mode       : Variable
    Overall bit rate            : 26.9 Mb/s
    Movie name                  : Father of the Bride Part II (1995) CinemaniaHDD.Net
    Encoded date                : UTC 2022-06-20 06:12:53
    Writing application         : mkvmerge v56.1.0 ('My Friend') 64-bit
    Writing library             : libebml v1.4.2 + libmatroska v1.6.4
    Attachments                 : CINEMANIAHD.png

    Video
    ID                          : 1
    Format                      : AVC
    Format/Info                 : Advanced Video Codec
    Format profile              : High@L4.1
    Format settings             : CABAC / 4 Ref Frames
    Format settings, CABAC      : Yes
    Format settings, Reference  : 4 frames
    Codec ID                    : V_MPEG4/ISO/AVC
    Duration                    : 1 h 46 min
    Bit rate mode               : Variable
    Bit rate                    : 22.1 Mb/s
    Maximum bit rate            : 38.0 Mb/s
    Width                       : 1 920 pixels
    Height                      : 1 080 pixels
    Display aspect ratio        : 16:9
    Frame rate mode             : Constant
    Frame rate                  : 23.976 (24000/1001) FPS
    Color space                 : YUV
    Chroma subsampling          : 4:2:0
    Bit depth                   : 8 bits
    Scan type                   : Progressive
    Bits/(Pixel*Frame)          : 0.444
    Stream size                 : 16.3 GiB (82%)
    Title                       : REMUX HD1080p [CinemaniaHDD]
    Language                    : English
    Default                     : Yes
    Forced                      : Yes

    Audio #1
    ID                          : 2
    Format                      : AC-3
    Format/Info                 : Audio Coding 3
    Commercial name             : Dolby Digital
    Codec ID                    : A_AC3
    Duration                    : 1 h 46 min
    Bit rate mode               : Constant
    Bit rate                    : 448 kb/s
    Channel(s)                  : 6 channels
    Channel layout              : L R C LFE Ls Rs
    Sampling rate               : 48.0 kHz
    Frame rate                  : 31.250 FPS (1536 SPF)
    Compression mode            : Lossy
    Stream size                 : 340 MiB (2%)
    Title                       : Español Latino AC3 [CinemaniaHDD]
    Language                    : Spanish
    Service kind                : Complete Main
    Default                     : Yes
    Forced                      : Yes

    Audio #2
    ID                          : 3
    Format                      : E-AC-3
    Format/Info                 : Enhanced AC-3
    Commercial name             : Dolby Digital Plus
    Codec ID                    : A_EAC3
    Duration                    : 1 h 46 min
    Bit rate mode               : Constant
    Bit rate                    : 256 kb/s
    Channel(s)                  : 6 channels
    Channel layout              : L R C LFE Ls Rs
    Sampling rate               : 48.0 kHz
    Frame rate                  : 31.250 FPS (1536 SPF)
    Compression mode            : Lossy
    Delay relative to video     : 1 s 778 ms
    Stream size                 : 194 MiB (1%)
    Title                       : Español Latino EAC3 [CinemaniaHDD]
    Language                    : Spanish
    Service kind                : Complete Main
    Default                     : No
    Forced                      : No

    Audio #3
    ID                          : 4
    Format                      : DTS XLL
    Format/Info                 : Digital Theater Systems
    Commercial name             : DTS-HD Master Audio
    Codec ID                    : A_DTS
    Duration                    : 1 h 46 min
    Bit rate mode               : Variable
    Bit rate                    : 4 082 kb/s
    Channel(s)                  : 6 channels
    Channel layout              : C L R Ls Rs LFE
    Sampling rate               : 48.0 kHz
    Frame rate                  : 93.750 FPS (512 SPF)
    Bit depth                   : 24 bits
    Compression mode            : Lossless
    Stream size                 : 3.03 GiB (15%)
    Title                       : Ingles [CinemaniaHDD]
    Language                    : English
    Default                     : No
    Forced                      : No

    Text #1
    ID                          : 5
    Format                      : UTF-8
    Codec ID                    : S_TEXT/UTF8
    Codec ID/Info               : UTF-8 Plain Text
    Duration                    : 1 h 20 min
    Bit rate                    : 0 b/s
    Count of elements           : 2
    Stream size                 : 60.0 Bytes (0%)
    Title                       : Forzados-SRT [CinemaniaHDD]
    Language                    : Spanish
    Default                     : Yes
    Forced                      : Yes

    Text #2
    ID                          : 6
    Format                      : UTF-8
    Codec ID                    : S_TEXT/UTF8
    Codec ID/Info               : UTF-8 Plain Text
    Duration                    : 1 h 41 min
    Bit rate                    : 67 b/s
    Count of elements           : 1368
    Stream size                 : 49.7 KiB (0%)
    Title                       : Español-SRT [CinemaniaHDD]
    Language                    : Spanish
    Default                     : No
    Forced                      : No

    Text #3
    ID                          : 7
    Format                      : PGS
    Muxing mode                 : zlib
    Codec ID                    : S_HDMV/PGS
    Codec ID/Info               : Picture based subtitle format used on BDs/HD-DVDs
    Duration                    : 1 h 42 min
    Bit rate                    : 56.8 kb/s
    Count of elements           : 3704
    Stream size                 : 41.7 MiB (0%)
    Title                       : Ingles [CinemaniaHDD]
    Language                    : English
    Default                     : No
    Forced                      : No

    Menu
    00:00:00.000                : Chapter 1
    00:05:26.284                : Chapter 2
    00:13:09.163                : Chapter 3
    00:22:52.371                : Chapter 4
    00:32:40.750                : Chapter 5
    00:37:12.105                : Chapter 6
    00:43:59.303                : Chapter 7
    00:48:55.641                : Chapter 8
    00:50:13.802                : Chapter 9
    00:55:44.591                : Chapter 10
    00:57:27.361                : Chapter 11
    01:03:41.735                : Chapter 12
    01:09:51.729                : Chapter 13
    01:13:31.407                : Chapter 14
    01:17:37.403                : Chapter 15
    01:19:35.521                : Chapter 16
    01:27:56.480                : Chapter 17
    01:32:45.560                : Chapter 18
    01:36:20.316                : Chapter 19
    01:41:24.829                : Chapter 20

  • Peso: 19.9 GiB

Sinopsis

Descargar El Padre De La Novia 2: Ahora También Abuelo (1995) REMUX 1080p Latino. Tras la boda de su querida hija Anne, George Banks siente que un periodo de calma y disfrute se abre ante él. Podrá cumplir su sueño de vender su casa y vivir junto a la playa. Pero primero los recién casados, anunciando su próxima paternidad, y después su mujer Nina, comunicándole que también está embarazada, parecen estar dispuestos a no dejarle disfrutar de su bien ganado descanso.

Audio Epsañol Latino AC3 5.1 + EAC3 5.1 D+ – Ingles DTS-HD 5.1 Bluray
Disponible Solo Para VIP!!!

Ficha técnica

  • Titulo original: Father of the Bride Part II
  • Fecha de lanzamiento: 08-12-1995 (United States of America)
  • Director: Charles Shyer
  • Género: Comedia, Familia, Remux

Video trailer de la película

Enlaces de descarga

Rip de Bluray

Descargar El Padre De La Novia 2: Ahora También Abuelo (1995) REMUX 1080p Latino


Aportes de DPeliculasHDmega la pass es:dpeliculashdmega.org Aportes de CinemaniaHD la pass es:cinemaniahdd.com
Guardado en : Comedia , Familia , Remux

Películas relacionadas

  • Hot Summer Nights (2017) 4K-SDR WEB-DL 2160p Latino

    Hot Summer Nights (2017) 4K-SDR WEB-DL 2160p Latino

    2018
    Hot Summer Nights (2017) 4K-SDR WEB-DL 2160p Latino

    1h 47m 2018

    Daniel es un tímido adolescente que comienza a vender marihuana, entrando en un mundo tentador pero...

    Director: Stephen W. Moore

    Género: 4K HDR

    Actores: Zack Shires

  • Hot Summer Nights (2017) AMZN WEB-DL 1080p Latino

    Hot Summer Nights (2017) AMZN WEB-DL 1080p Latino

    2018
    Hot Summer Nights (2017) AMZN WEB-DL 1080p Latino

    1h 47m 2018

    Daniel es un tímido adolescente que comienza a vender marihuana, entrando en un mundo tentador pero...

    Director: Stephen W. Moore

    Género: Comedia

    Actores: Zack Shires

  • Wire Room (2022) REMUX 1080p Latino

    Wire Room (2022) REMUX 1080p Latino

    2022
    Wire Room (2022) REMUX 1080p Latino

    1h 37m 2022

    Descargar Wire Room (2022) REMUX 1080p Latino. Mientras está de servicio en la sala de cables, un agente...

    Director: Matt Eskandari

    Género: Acción

    Actores: Texas Battle

descargar El Padre De La Novia 2: Ahora También Abuelo (1995) REMUX 1080p Latino Full 1080p 1080p gratis, El Padre De La Novia 2: Ahora También Abuelo (1995) REMUX 1080p Latino Full 1080p mega 1 link, El Padre De La Novia 2: Ahora También Abuelo (1995) REMUX 1080p Latino Full 1080p pelicula completa, descargar El Padre De La Novia 2: Ahora También Abuelo (1995) REMUX 1080p Latino Full 1080p gratis en mega.

El Padre De La Novia 2: Ahora También Abuelo (1995) REMUX 1080p Latino pelicula full hd, El Padre De La Novia 2: Ahora También Abuelo (1995) REMUX 1080p Latino mega latino, El Padre De La Novia 2: Ahora También Abuelo (1995) REMUX 1080p Latino 4k latino, El Padre De La Novia 2: Ahora También Abuelo (1995) REMUX 1080p Latino pelicula completa, El Padre De La Novia 2: Ahora También Abuelo (1995) REMUX 1080p Latino descargar gratis, descargar El Padre De La Novia 2: Ahora También Abuelo (1995) REMUX 1080p Latino pelicula latino, El Padre De La Novia 2: Ahora También Abuelo (1995) REMUX 1080p Latino 1 link mega, El Padre De La Novia 2: Ahora También Abuelo (1995) REMUX 1080p Latino 1 link google drive, El Padre De La Novia 2: Ahora También Abuelo (1995) REMUX 1080p Latino hd 1080p latino.
Comentarios 0