×

¿Problemas para descargar con Mozilla, EDGE? Deshabilita la opción "Abrir vinculos en una pestaña nueva" tal como lo muestra ésta imagen.

Fatale: Juego Fatal (2020) REMUX 1080p Latino

226 vistas

Información de Fatale: Juego Fatal (2020) REMUX 1080p Latino

Datos de la película

  • Calidad: Full 1080p
  • Audio: Español Latino AC3 5.1 BLURAY - Ingles DTS 5.1 BLURAY
  • Subtitulos: Español Latino PGS - Ingles PGS
  • Resolución: 1920x1080p
  • Formato: MKV
  • Codec: H.264
  • Encoder: Melkor
  • Mediainfo: Clic para Mostrar Datos Ver
  • Fatale (2020) REMUX 1080p Latino.mkv
    Format                      : Matroska
    Format version              : Version 4
    File size                   : 28.5 GiB
    Duration                    : 1 h 42 min
    Overall bit rate mode       : Variable
    Overall bit rate            : 39.7 Mb/s
    Movie name                  : Fatale (2020) CinemaniaHDD.Net
    Encoded date                : UTC 2021-02-21 08:46:03
    Writing application         : mkvmerge v51.0.0 ('I Wish') 64-bit
    Writing library             : libebml v1.4.0 + libmatroska v1.6.2
    Attachments                 : CINEMANIAHD.png

    Video
    ID                          : 1
    ID in the original source m : 4113 (0x1011)
    Format                      : AVC
    Format/Info                 : Advanced Video Codec
    Format profile              : High@L4.1
    Format settings             : CABAC / 4 Ref Frames
    Format settings, CABAC      : Yes
    Format settings, Reference  : 4 frames
    Format settings, GOP        : M=3, N=12
    Codec ID                    : V_MPEG4/ISO/AVC
    Duration                    : 1 h 42 min
    Bit rate mode               : Variable
    Bit rate                    : 35.4 Mb/s
    Maximum bit rate            : 37.0 Mb/s
    Width                       : 1 920 pixels
    Height                      : 1 080 pixels
    Display aspect ratio        : 16:9
    Frame rate mode             : Constant
    Frame rate                  : 23.976 (24000/1001) FPS
    Color space                 : YUV
    Chroma subsampling          : 4:2:0
    Bit depth                   : 8 bits
    Scan type                   : Progressive
    Bits/(Pixel*Frame)          : 0.712
    Stream size                 : 25.4 GiB (89%)
    Title                       : REMUX HD1080p [CinemaniaHDD]
    Language                    : English
    Default                     : Yes
    Forced                      : No
    Original source medium      : Blu-ray

    Audio #1
    ID                          : 2
    ID in the original source m : 4354 (0x1102)
    Format                      : AC-3
    Format/Info                 : Audio Coding 3
    Commercial name             : Dolby Digital
    Codec ID                    : A_AC3
    Duration                    : 1 h 42 min
    Bit rate mode               : Constant
    Bit rate                    : 640 kb/s
    Channel(s)                  : 6 channels
    Channel layout              : L R C LFE Ls Rs
    Sampling rate               : 48.0 kHz
    Frame rate                  : 31.250 FPS (1536 SPF)
    Compression mode            : Lossy
    Stream size                 : 470 MiB (2%)
    Title                       : Español Latino [CinemaniaHDD]
    Language                    : Spanish
    Service kind                : Complete Main
    Default                     : Yes
    Forced                      : No
    Original source medium      : Blu-ray

    Audio #2
    ID                          : 3
    ID in the original source m : 4352 (0x1100)
    Format                      : DTS XLL
    Format/Info                 : Digital Theater Systems
    Commercial name             : DTS-HD Master Audio
    Codec ID                    : A_DTS
    Duration                    : 1 h 42 min
    Bit rate mode               : Variable
    Bit rate                    : 3 662 kb/s
    Channel(s)                  : 6 channels
    Channel layout              : C L R Ls Rs LFE
    Sampling rate               : 48.0 kHz
    Frame rate                  : 93.750 FPS (512 SPF)
    Bit depth                   : 24 bits
    Compression mode            : Lossless
    Stream size                 : 2.62 GiB (9%)
    Title                       : Ingles [CinemaniaHDD]
    Language                    : English
    Default                     : No
    Forced                      : No
    Original source medium      : Blu-ray

    Text #1
    ID                          : 4
    ID in the original source m : 4609 (0x1201)
    Format                      : PGS
    Muxing mode                 : zlib
    Codec ID                    : S_HDMV/PGS
    Codec ID/Info               : Picture based subtitle format used on BDs/HD-DVDs
    Duration                    : 25 min 25 s
    Bit rate                    : 666 b/s
    Count of elements           : 6
    Stream size                 : 124 KiB (0%)
    Title                       : Forzados-PGS [CinemaniaHDD]
    Language                    : Spanish
    Default                     : Yes
    Forced                      : No
    Original source medium      : Blu-ray

    Text #2
    ID                          : 5
    ID in the original source m : 4609 (0x1201)
    Format                      : PGS
    Muxing mode                 : zlib
    Codec ID                    : S_HDMV/PGS
    Codec ID/Info               : Picture based subtitle format used on BDs/HD-DVDs
    Duration                    : 1 h 37 min
    Bit rate                    : 24.9 kb/s
    Count of elements           : 1834
    Stream size                 : 17.5 MiB (0%)
    Title                       : Español-PGS [CinemaniaHDD]
    Language                    : Spanish
    Default                     : No
    Forced                      : No
    Original source medium      : Blu-ray

    Text #3
    ID                          : 6
    ID in the original source m : 4608 (0x1200)
    Format                      : PGS
    Muxing mode                 : zlib
    Codec ID                    : S_HDMV/PGS
    Codec ID/Info               : Picture based subtitle format used on BDs/HD-DVDs
    Duration                    : 1 h 38 min
    Bit rate                    : 32.8 kb/s
    Count of elements           : 2502
    Stream size                 : 23.0 MiB (0%)
    Title                       : Ingles-PGS [CinemaniaHDD]
    Language                    : English
    Default                     : No
    Forced                      : No
    Original source medium      : Blu-ray

    Text #4
    ID                          : 7
    Format                      : UTF-8
    Codec ID                    : S_TEXT/UTF8
    Codec ID/Info               : UTF-8 Plain Text
    Duration                    : 1 h 2 min
    Bit rate                    : 0 b/s
    Count of elements           : 7
    Stream size                 : 356 Bytes (0%)
    Title                       : Forzados-SRT [CinemaniaHDD]
    Language                    : Spanish
    Default                     : No
    Forced                      : No

    Text #5
    ID                          : 8
    Format                      : UTF-8
    Codec ID                    : S_TEXT/UTF8
    Codec ID/Info               : UTF-8 Plain Text
    Duration                    : 1 h 37 min
    Bit rate                    : 41 b/s
    Count of elements           : 912
    Stream size                 : 29.7 KiB (0%)
    Title                       : Español-SRT [CinemaniaHDD]
    Language                    : Spanish
    Default                     : No
    Forced                      : No

    Menu
    00:00:00.000                : en:Chapter 01
    00:05:29.746                : en:Chapter 02
    00:12:49.268                : en:Chapter 03
    00:16:23.732                : en:Chapter 04
    00:20:46.787                : en:Chapter 05
    00:29:03.658                : en:Chapter 06
    00:32:24.609                : en:Chapter 07
    00:35:07.605                : en:Chapter 08
    00:40:48.529                : en:Chapter 09
    00:45:42.114                : en:Chapter 10
    00:50:24.730                : en:Chapter 11
    00:57:51.801                : en:Chapter 12
    01:04:54.223                : en:Chapter 13
    01:12:38.020                : en:Chapter 14
    01:21:35.599                : en:Chapter 15
    01:29:41.626                : en:Chapter 16

  • Peso: 28.5 GiB

Sinopsis

Descargar Fatale: Juego Fatal (2020) REMUX 1080p Latino. Darren, un exitoso agente deportivo y hombre casado, se adentra en un mundo de pesadilla cuando comienza a ser manipulado por una detective con la que ha tenido una noche de pasión. La pregunta es: ¿hasta dónde estará dispuesto a llegar para salvar su matrimonio del error que ha cometido?

Ficha técnica

  • Titulo original: Fatale
  • Fecha de lanzamiento: 18-12-2020 (United States of America)
  • Director: Deon Taylor
  • Género: Remux, Suspenso

Video trailer de la película

Enlaces de descarga

Rip de Bluray

Descargar Fatale: Juego Fatal (2020) REMUX 1080p Latino




Aportes de DPeliculasHDmega la pass es:dpeliculashdmega.org Aportes de CinemaniaHD la pass es:cinemaniahdd.com
Guardado en : Remux , Suspenso

Películas relacionadas

descargar Fatale: Juego Fatal (2020) REMUX 1080p Latino Full 1080p 1080p gratis, Fatale: Juego Fatal (2020) REMUX 1080p Latino Full 1080p mega 1 link, Fatale: Juego Fatal (2020) REMUX 1080p Latino Full 1080p pelicula completa, descargar Fatale: Juego Fatal (2020) REMUX 1080p Latino Full 1080p gratis en mega.

Fatale: Juego Fatal (2020) REMUX 1080p Latino pelicula full hd, Fatale: Juego Fatal (2020) REMUX 1080p Latino mega latino, Fatale: Juego Fatal (2020) REMUX 1080p Latino 4k latino, Fatale: Juego Fatal (2020) REMUX 1080p Latino pelicula completa, Fatale: Juego Fatal (2020) REMUX 1080p Latino descargar gratis, descargar Fatale: Juego Fatal (2020) REMUX 1080p Latino pelicula latino, Fatale: Juego Fatal (2020) REMUX 1080p Latino 1 link mega, Fatale: Juego Fatal (2020) REMUX 1080p Latino 1 link google drive, Fatale: Juego Fatal (2020) REMUX 1080p Latino hd 1080p latino.
Comentarios 0