Fatale: Juego Fatal (2020) HD 1080p Latino

5 vistas
1 estrella2 estrellas3 estrellas4 estrellas5 estrellas (Ninguna valoración todavía)
Cargando...

Información de Fatale: Juego Fatal (2020) HD 1080p Latino

Datos de la película

  • Calidad: 1080p
  • Audio: Español Latino AC3 5.1 BLURAY - Ingles AC3 5.1 BLURAY
  • Subtitulos: Español Latino SRT- FORZADOS SRT
  • Resolución: 1920x804p
  • Formato: MKV
  • Codec: H.264
  • Encoder: Melkor
  • Mediainfo: Clic para Mostrar Datos Ver
  • Fatale (2020) HD 1080p Latino.mkv
    Format                      : Matroska
    Format version              : Version 4
    File size                   : 3.25 GiB
    Duration                    : 1 h 42 min
    Overall bit rate            : 4 531 kb/s
    Movie name                  : Fatale (2020) CinemaniaHDD.Net
    Encoded date                : UTC 2021-02-21 09:02:21
    Writing application         : mkvmerge v51.0.0 ('I Wish') 64-bit
    Writing library             : libebml v1.4.0 + libmatroska v1.6.2
    Attachments                 : CINEMANIAHD.png

    Video
    ID                          : 1
    Format                      : AVC
    Format/Info                 : Advanced Video Codec
    Format profile              : High@L4.1
    Format settings             : CABAC / 5 Ref Frames
    Format settings, CABAC      : Yes
    Format settings, Reference  : 5 frames
    Codec ID                    : V_MPEG4/ISO/AVC
    Duration                    : 1 h 42 min
    Bit rate                    : 3 500 kb/s
    Width                       : 1 920 pixels
    Height                      : 804 pixels
    Display aspect ratio        : 2.40:1
    Frame rate mode             : Constant
    Frame rate                  : 23.976 (24000/1001) FPS
    Color space                 : YUV
    Chroma subsampling          : 4:2:0
    Bit depth                   : 8 bits
    Scan type                   : Progressive
    Bits/(Pixel*Frame)          : 0.095
    Stream size                 : 2.47 GiB (76%)
    Title                       : HD1080p [CinemaniaHDD]
    Writing library             : x264 core 157 r2935 545de2f
    Encoding settings           : cabac=1 / ref=5 / deblock=1:-1:-1 / analyse=0x3:0x133 / me=umh / subme=9 / psy=1 / psy_rd=1.00:0.15 / mixed_ref=1 / me_range=16 / chroma_me=1 / trellis=2 / 8x8dct=1 / cqm=0 / deadzone=21,11 / fast_pskip=1 / chroma_qp_offset=-3 / threads=24 / lookahead_threads=2 / sliced_threads=0 / nr=0 / decimate=1 / interlaced=0 / bluray_compat=0 / constrained_intra=0 / bframes=3 / b_pyramid=2 / b_adapt=2 / b_bias=0 / direct=3 / weightb=1 / open_gop=0 / weightp=2 / keyint=240 / keyint_min=24 / scenecut=40 / intra_refresh=0 / rc_lookahead=60 / rc=abr / mbtree=1 / bitrate=3500 / ratetol=1.0 / qcomp=0.60 / qpmin=0 / qpmax=69 / qpstep=4 / vbv_maxrate=62500 / vbv_bufsize=78125 / nal_hrd=none / filler=0 / ip_ratio=1.40 / aq=1:1.00
    Default                     : Yes
    Forced                      : Yes
    Color range                 : Limited
    Color primaries             : BT.709
    Transfer characteristics    : BT.709
    Matrix coefficients         : BT.709

    Audio #1
    ID                          : 2
    ID in the original source m : 4354 (0x1102)
    Format                      : AC-3
    Format/Info                 : Audio Coding 3
    Commercial name             : Dolby Digital
    Codec ID                    : A_AC3
    Duration                    : 1 h 42 min
    Bit rate mode               : Constant
    Bit rate                    : 640 kb/s
    Channel(s)                  : 6 channels
    Channel layout              : L R C LFE Ls Rs
    Sampling rate               : 48.0 kHz
    Frame rate                  : 31.250 FPS (1536 SPF)
    Compression mode            : Lossy
    Delay relative to video     : -5 ms
    Stream size                 : 470 MiB (14%)
    Title                       : Español Latino [CinemaniaHDD]
    Language                    : Spanish
    Service kind                : Complete Main
    Default                     : Yes
    Forced                      : No
    Original source medium      : Blu-ray

    Audio #2
    ID                          : 3
    Format                      : AC-3
    Format/Info                 : Audio Coding 3
    Commercial name             : Dolby Digital
    Codec ID                    : A_AC3
    Duration                    : 1 h 42 min
    Bit rate mode               : Constant
    Bit rate                    : 448 kb/s
    Channel(s)                  : 6 channels
    Channel layout              : L R C LFE Ls Rs
    Sampling rate               : 48.0 kHz
    Frame rate                  : 31.250 FPS (1536 SPF)
    Compression mode            : Lossy
    Delay relative to video     : -5 ms
    Stream size                 : 329 MiB (10%)
    Title                       : Ingles [CinemaniaHDD]
    Language                    : English
    Service kind                : Complete Main
    Default                     : No
    Forced                      : No

    Text #1
    ID                          : 4
    Format                      : UTF-8
    Codec ID                    : S_TEXT/UTF8
    Codec ID/Info               : UTF-8 Plain Text
    Duration                    : 1 h 2 min
    Bit rate                    : 0 b/s
    Count of elements           : 7
    Stream size                 : 356 Bytes (0%)
    Title                       : Forzados-SRT [CinemaniaHDD]
    Language                    : Spanish
    Default                     : Yes
    Forced                      : Yes

    Text #2
    ID                          : 5
    Format                      : UTF-8
    Codec ID                    : S_TEXT/UTF8
    Codec ID/Info               : UTF-8 Plain Text
    Duration                    : 1 h 37 min
    Bit rate                    : 41 b/s
    Count of elements           : 912
    Stream size                 : 29.7 KiB (0%)
    Title                       : Español-SRT [CinemaniaHDD]
    Language                    : Spanish
    Default                     : No
    Forced                      : No

    Text #3
    ID                          : 6
    Format                      : UTF-8
    Codec ID                    : S_TEXT/UTF8
    Codec ID/Info               : UTF-8 Plain Text
    Duration                    : 1 h 37 min
    Bit rate                    : 45 b/s
    Count of elements           : 1064
    Stream size                 : 32.8 KiB (0%)
    Title                       : Ingles-SRT [CinemaniaHDD]
    Language                    : English
    Default                     : No
    Forced                      : No

    Menu
    00:00:00.000                : en:Chapter 01
    00:05:29.746                : en:Chapter 02
    00:12:49.268                : en:Chapter 03
    00:16:23.732                : en:Chapter 04
    00:20:46.787                : en:Chapter 05
    00:29:03.658                : en:Chapter 06
    00:32:24.609                : en:Chapter 07
    00:35:07.605                : en:Chapter 08
    00:40:48.529                : en:Chapter 09
    00:45:42.114                : en:Chapter 10
    00:50:24.730                : en:Chapter 11
    00:57:51.801                : en:Chapter 12
    01:04:54.223                : en:Chapter 13
    01:12:38.020                : en:Chapter 14
    01:21:35.599                : en:Chapter 15
    01:29:41.626                : en:Chapter 16

  • Peso: 3.25 GiB

Sinopsis

Descargar Fatale: Juego Fatal (2020) HD 1080p Latino. Darren, un exitoso agente deportivo y hombre casado, se adentra en un mundo de pesadilla cuando comienza a ser manipulado por una detective con la que ha tenido una noche de pasión. La pregunta es: ¿hasta dónde estará dispuesto a llegar para salvar su matrimonio del error que ha cometido?

Ficha técnica

  • Titulo original: Fatale
  • Fecha de lanzamiento: 18-12-2020 (United States of America)
  • Director: Deon Taylor
  • Género: HD 1080p, Suspenso
  • Puntuación: 0.0 0 votos
  • Duración:
    1h 42m

Video trailer de la película

Enlaces de descarga

Rip de Bluray

Descargar Fatale: Juego Fatal (2020) HD 1080p Latino




Aportes de DPeliculasHDmega la pass es:dpeliculashdmega.org Aportes de CinemaniaHD la pass es:cinemaniahdd.com
Guardado en : HD 1080p , Suspenso

Películas relacionadas

  • Un Amor Para Recordar (2002) 1080p Latino

    Un Amor Para Recordar (2002) 1080p Latino

    2002
    Un Amor Para Recordar (2002) 1080p Latino

    0.0 1h 40m 2002

    Descargar Un Amor Para Recordar (2002) 1080p Latino. Jamie era la última persona de la que se enamoraría...

    Director: Timothy M. Bourne

    Género: Drama

    Actores: Xavier Hernandez

  • Fatale: Juego Fatal (2020) PLACEBO Full HD 1080p Latino

    Fatale: Juego Fatal (2020) PLACEBO Full HD 1080p Latino

    2020
    Fatale: Juego Fatal (2020) PLACEBO Full HD 1080p Latino

    0.0 1h 42m 2020

    Descargar Fatale: Juego Fatal (2020) PLACEBO Full HD 1080p Latino. Darren, un exitoso agente deportivo...

    Director: Deon Taylor

    Género: FULL 1080p Plateadas

    Actores: Tyrin Turner

  • Fatale: Juego Fatal (2020) REMUX 1080p Latino

    Fatale: Juego Fatal (2020) REMUX 1080p Latino

    2020
    Fatale: Juego Fatal (2020) REMUX 1080p Latino

    0.0 1h 42m 2020

    Descargar Fatale: Juego Fatal (2020) REMUX 1080p Latino. Darren, un exitoso agente deportivo y hombre...

    Director: Deon Taylor

    Género: Remux

    Actores: Tyrin Turner

  • Para toda la vida (2020) HD 1080p Latino

    Para toda la vida (2020) HD 1080p Latino

    2020
    Para toda la vida (2020) HD 1080p Latino

    0.0 1h 33m 2020

    Descargar Para toda la vida (2020) HD 1080p Latino. Jenn Carter y Sol Chau están enamorados, tienen...

    Director: Marc Meyers

    Género: Drama

    Actores: Michael Masini

Comentarios 0