×

¿Problemas para descargar con Mozilla, EDGE? Deshabilita la opción "Abrir vinculos en una pestaña nueva" tal como lo muestra ésta imagen.

Venganza Letal (2010) OPEN MATTE REMUX 1080p Latino

715 vistas

Información de Venganza Letal (2010) OPEN MATTE REMUX 1080p Latino

Datos de la película

  • Calidad: Full 1080p
  • Audio: Se especifica abajo de la Sinopsis
  • Subtitulos: Español Latino PGS - Ingles PGS
  • Resolución: 1920x1080p
  • Formato: MKV
  • Codec: H.264
  • Encoder: CinefiloCool
  • Mediainfo: Clic para Mostrar Datos Ver
  • Venganza Letal (2010) OPEN MATTE REMUX 1080p Latino-CMHDD.mkv
    Format                      : Matroska
    Format version              : Version 4
    File size                   : 16.0 GiB
    Duration                    : 1 h 37 min
    Overall bit rate mode       : Variable
    Overall bit rate            : 23.3 Mb/s
    Movie name                  : Faster (2010) CinemaniaHDD.Net
    Encoded date                : UTC 2022-07-18 20:47:58
    Writing application         : mkvmerge v56.1.0 ('My Friend') 64-bit
    Writing library             : libebml v1.4.2 + libmatroska v1.6.4
    Attachments                 : CINEMANIAHD.png

    Video
    ID                          : 1
    Format                      : AVC
    Format/Info                 : Advanced Video Codec
    Format profile              : High@L4.1
    Format settings             : CABAC / 4 Ref Frames
    Format settings, CABAC      : Yes
    Format settings, Reference  : 4 frames
    Format settings, GOP        : M=3, N=24
    Codec ID                    : V_MPEG4/ISO/AVC
    Duration                    : 1 h 37 min
    Bit rate mode               : Variable
    Bit rate                    : 20.0 Mb/s
    Maximum bit rate            : 35.0 Mb/s
    Width                       : 1 920 pixels
    Height                      : 1 080 pixels
    Display aspect ratio        : 16:9
    Frame rate mode             : Constant
    Frame rate                  : 23.976 (24000/1001) FPS
    Standard                    : NTSC
    Color space                 : YUV
    Chroma subsampling          : 4:2:0
    Bit depth                   : 8 bits
    Scan type                   : Progressive
    Bits/(Pixel*Frame)          : 0.402
    Stream size                 : 13.7 GiB (86%)
    Title                       : REMUX OM HD1080p [CinemaniaHDD]
    Default                     : Yes
    Forced                      : Yes
    Color range                 : Limited
    Color primaries             : BT.709
    Transfer characteristics    : BT.709
    Matrix coefficients         : BT.709

    Audio #1
    ID                          : 2
    Format                      : AC-3
    Format/Info                 : Audio Coding 3
    Commercial name             : Dolby Digital
    Codec ID                    : A_AC3
    Duration                    : 1 h 37 min
    Bit rate mode               : Constant
    Bit rate                    : 640 kb/s
    Channel(s)                  : 6 channels
    Channel layout              : L R C LFE Ls Rs
    Sampling rate               : 48.0 kHz
    Frame rate                  : 31.250 FPS (1536 SPF)
    Compression mode            : Lossy
    Delay relative to video     : 28 ms
    Stream size                 : 448 MiB (3%)
    Title                       : Español Latino AC3 [CinemaniaHDD]
    Language                    : Spanish
    Service kind                : Complete Main
    Default                     : Yes
    Forced                      : Yes

    Audio #2
    ID                          : 3
    Format                      : E-AC-3
    Format/Info                 : Enhanced AC-3
    Commercial name             : Dolby Digital Plus
    Codec ID                    : A_EAC3
    Duration                    : 1 h 37 min
    Bit rate mode               : Constant
    Bit rate                    : 640 kb/s
    Channel(s)                  : 6 channels
    Channel layout              : L R C LFE Ls Rs
    Sampling rate               : 48.0 kHz
    Frame rate                  : 31.250 FPS (1536 SPF)
    Compression mode            : Lossy
    Delay relative to video     : 24 ms
    Stream size                 : 448 MiB (3%)
    Title                       : Español Latino EAC3 [CinemaniaHDD]
    Language                    : Spanish
    Service kind                : Complete Main
    Default                     : No
    Forced                      : No

    Audio #3
    ID                          : 4
    Format                      : DTS XBR
    Format/Info                 : Digital Theater Systems
    Commercial name             : DTS-HD High Resolution Audio
    Codec ID                    : A_DTS
    Duration                    : 1 h 37 min
    Bit rate mode               : Constant
    Bit rate                    : 2 046 kb/s
    Channel(s)                  : 6 channels
    Channel layout              : C L R Ls Rs LFE
    Sampling rate               : 96.0 kHz
    Frame rate                  : 187.500 FPS (512 SPF)
    Bit depth                   : 24 bits
    Compression mode            : Lossy
    Stream size                 : 1.40 GiB (9%)
    Title                       : Ingles [CinemaniaHDD]
    Language                    : English
    Default                     : No
    Forced                      : No

    Text #1
    ID                          : 5
    Format                      : PGS
    Muxing mode                 : zlib
    Codec ID                    : S_HDMV/PGS
    Codec ID/Info               : Picture based subtitle format used on BDs/HD-DVDs
    Duration                    : 1 h 31 min
    Bit rate                    : 22.9 kb/s
    Count of elements           : 1682
    Stream size                 : 15.0 MiB (0%)
    Title                       : Español-PGS [CinemaniaHDD]
    Language                    : Spanish
    Default                     : No
    Forced                      : No

    Text #2
    ID                          : 6
    Format                      : PGS
    Muxing mode                 : zlib
    Codec ID                    : S_HDMV/PGS
    Codec ID/Info               : Picture based subtitle format used on BDs/HD-DVDs
    Duration                    : 1 h 31 min
    Bit rate                    : 22.9 kb/s
    Count of elements           : 1628
    Stream size                 : 15.0 MiB (0%)
    Title                       : Ingles-PGS [CinemaniaHDD]
    Language                    : English
    Default                     : No
    Forced                      : No

    Text #3
    ID                          : 7
    Format                      : UTF-8
    Codec ID                    : S_TEXT/UTF8
    Codec ID/Info               : UTF-8 Plain Text
    Duration                    : 1 h 30 min
    Bit rate                    : 0 b/s
    Count of elements           : 16
    Stream size                 : 408 Bytes (0%)
    Title                       : Forzados-SRT [CinemaniaHDD]
    Language                    : Spanish
    Default                     : Yes
    Forced                      : Yes

    Text #4
    ID                          : 8
    Format                      : UTF-8
    Codec ID                    : S_TEXT/UTF8
    Codec ID/Info               : UTF-8 Plain Text
    Duration                    : 1 h 31 min
    Bit rate                    : 41 b/s
    Count of elements           : 841
    Stream size                 : 27.7 KiB (0%)
    Title                       : Español-SRT [CinemaniaHDD]
    Language                    : Spanish
    Default                     : No
    Forced                      : No

    Menu
    00:00:00.000                : Chapter 1
    00:07:49.952                : Chapter 2
    00:11:58.784                : Chapter 3
    00:20:56.029                : Chapter 4
    00:24:28.283                : Chapter 5
    00:30:37.777                : Chapter 6
    00:35:45.710                : Chapter 7
    00:43:29.506                : Chapter 8
    00:47:06.473                : Chapter 9
    00:54:51.980                : Chapter 10
    00:59:16.119                : Chapter 11
    01:07:07.506                : Chapter 12
    01:11:27.182                : Chapter 13
    01:17:08.023                : Chapter 14
    01:23:04.504                : Chapter 15
    01:28:44.302                : Chapter 16

  • Peso: 16.0 GiB

Sinopsis

Descargar Venganza Letal (2010) OPEN MATTE REMUX 1080p Latino. Un ex presidiario (Dwayne Johnson) quiere vengar la muerte de su hermano, ocurrida tiempo atrás cuando ambos daban un golpe. Sin embargo, un veterano policía (Billy Bob Thornton), al mismo tiempo que sigue sus pasos, intenta averiguar quiénes son los culpables del asesinato.

Audio Español Latino EAC3 5.1 NF + AC3 5.1 Bluray – Ingles DTS-HD 5.1 Bluray
Disponible Solo Para VIP!!!!

Ficha técnica

Video trailer de la película

Enlaces de descarga

Rip de Bluray

Descargar Venganza Letal (2010) OPEN MATTE REMUX 1080p Latino


Aportes de DPeliculasHDmega la pass es:dpeliculashdmega.org Aportes de CinemaniaHD la pass es:cinemaniahdd.com
Guardado en : Acción , Crimen , Drama , OPEN MATTE , Remux , Suspenso

Películas relacionadas

descargar Venganza Letal (2010) OPEN MATTE REMUX 1080p Latino Full 1080p 1080p gratis, Venganza Letal (2010) OPEN MATTE REMUX 1080p Latino Full 1080p mega 1 link, Venganza Letal (2010) OPEN MATTE REMUX 1080p Latino Full 1080p pelicula completa, descargar Venganza Letal (2010) OPEN MATTE REMUX 1080p Latino Full 1080p gratis en mega.

Venganza Letal (2010) OPEN MATTE REMUX 1080p Latino pelicula full hd, Venganza Letal (2010) OPEN MATTE REMUX 1080p Latino mega latino, Venganza Letal (2010) OPEN MATTE REMUX 1080p Latino 4k latino, Venganza Letal (2010) OPEN MATTE REMUX 1080p Latino pelicula completa, Venganza Letal (2010) OPEN MATTE REMUX 1080p Latino descargar gratis, descargar Venganza Letal (2010) OPEN MATTE REMUX 1080p Latino pelicula latino, Venganza Letal (2010) OPEN MATTE REMUX 1080p Latino 1 link mega, Venganza Letal (2010) OPEN MATTE REMUX 1080p Latino 1 link google drive, Venganza Letal (2010) OPEN MATTE REMUX 1080p Latino hd 1080p latino.
Comentarios 1
  • Mrerw22 - 20 julio, 2022

    Excelente versión de open matte. Gracias por esta versión en calidad remux.