×

¿Problemas para descargar con Mozilla, EDGE? Deshabilita la opción "Abrir vinculos en una pestaña nueva" tal como lo muestra ésta imagen.

Fast & Furious Spy Racers (2019) Temporada 1 NF WEB-DL 1080p Latino

2.493 vistas

Información de Fast & Furious Spy Racers (2019) Temporada 1 NF WEB-DL 1080p Latino

Datos de la película

  • Calidad:
  • Audio: Español Latino AC3 5.1 Netflix - Ingles AC3 5.1 Netflix
  • Subtitulos: Español Latino SRT- FORZADOS SRT
  • Resolución: 1920x1080
  • Formato: MKV
  • Codec: H.264
  • Encoder: cinemaniahdd
  • Mediainfo: Clic para Mostrar Datos Ver
  • Fast and Furious Spy Racers S01E01 NF WEB-DL 1080p Latino.mkv
    Format                      : Matroska
    Format version              : Version 4
    File size                   : 1.08 GiB
    Duration                    : 24 min 18 s
    Overall bit rate mode       : Variable
    Overall bit rate            : 6 362 kb/s
    Movie name                  : Fast and Furious Spy Racers S01E01 - CinemaniaHDD.Net
    Encoded date                : UTC 2019-12-26 23:14:14
    Writing application         : mkvmerge v38.0.0 ('The Silent Type') 64-bit
    Writing library             : libebml v1.3.9 + libmatroska v1.5.2

    Video
    ID                          : 1
    Format                      : AVC
    Format/Info                 : Advanced Video Codec
    Format profile              : Main@L4
    Format settings             : CABAC / 3 Ref Frames
    Format settings, CABAC      : Yes
    Format settings, ReFrames   : 3 frames
    Codec ID                    : V_MPEG4/ISO/AVC
    Duration                    : 24 min 18 s
    Bit rate mode               : Variable
    Bit rate                    : 5 593 kb/s
    Maximum bit rate            : 8 700 kb/s
    Width                       : 1 920 pixels
    Height                      : 1 080 pixels
    Display aspect ratio        : 16:9
    Frame rate mode             : Constant
    Frame rate                  : 23.976 (24000/1001) FPS
    Color space                 : YUV
    Chroma subsampling          : 4:2:0
    Bit depth                   : 8 bits
    Scan type                   : Progressive
    Bits/(Pixel*Frame)          : 0.112
    Stream size                 : 972 MiB (88%)
    Title                       : CinemaniaHDD
    Default                     : Yes
    Forced                      : No

    Audio #1
    ID                          : 2
    Format                      : AC-3
    Format/Info                 : Audio Coding 3
    Commercial name             : Dolby Digital
    Codec ID                    : A_AC3
    Duration                    : 24 min 18 s
    Bit rate mode               : Constant
    Bit rate                    : 384 kb/s
    Channel(s)                  : 6 channels
    Channel layout              : L R C LFE Ls Rs
    Sampling rate               : 48.0 kHz
    Frame rate                  : 31.250 FPS (1536 SPF)
    Bit depth                   : 16 bits
    Compression mode            : Lossy
    Stream size                 : 66.8 MiB (6%)
    Title                       : Español latino [CinemaniaHDD]
    Language                    : Spanish
    Service kind                : Complete Main
    Default                     : Yes
    Forced                      : No

    Audio #2
    ID                          : 3
    Format                      : AC-3
    Format/Info                 : Audio Coding 3
    Commercial name             : Dolby Digital
    Codec ID                    : A_AC3
    Duration                    : 24 min 18 s
    Bit rate mode               : Constant
    Bit rate                    : 384 kb/s
    Channel(s)                  : 6 channels
    Channel layout              : L R C LFE Ls Rs
    Sampling rate               : 48.0 kHz
    Frame rate                  : 31.250 FPS (1536 SPF)
    Bit depth                   : 16 bits
    Compression mode            : Lossy
    Stream size                 : 66.8 MiB (6%)
    Title                       : Inglés [CinemaniaHDD]
    Language                    : English
    Service kind                : Complete Main
    Default                     : No
    Forced                      : No

    Text #1
    ID                          : 4
    Format                      : UTF-8
    Codec ID                    : S_TEXT/UTF8
    Codec ID/Info               : UTF-8 Plain Text
    Duration                    : 23 min 4 s
    Bit rate                    : 1 b/s
    Count of elements           : 13
    Stream size                 : 248 Bytes (0%)
    Title                       : Forzados [CinemaniaHDD]
    Language                    : Spanish
    Default                     : Yes
    Forced                      : Yes

    Text #2
    ID                          : 5
    Format                      : UTF-8
    Codec ID                    : S_TEXT/UTF8
    Codec ID/Info               : UTF-8 Plain Text
    Duration                    : 23 min 4 s
    Bit rate                    : 66 b/s
    Count of elements           : 345
    Stream size                 : 11.3 KiB (0%)
    Title                       : Español latino [CinemaniaHDD]
    Language                    : Spanish
    Default                     : No
    Forced                      : No

     

  • Peso: 1.08 GiB C/U

Sinopsis

Una agencia gubernamental recluta a un conductor de Tony Toretto y sus amigos que buscan emociones para infiltrarse en un circuito criminal de carreras callejeras como un pincho encubierto.

Ficha técnica

Video trailer de la película

Enlaces de descarga

Rip de Bluray

Descargar Fast & Furious Spy Racers (2019) Temporada 1 NF WEB-DL 1080p Latino




Aportes de DPeliculasHDmega la pass es:dpeliculashdmega.org Aportes de CinemaniaHD la pass es:cinemaniahdd.com

Películas relacionadas

descargar Fast & Furious Spy Racers (2019) Temporada 1 NF WEB-DL 1080p Latino 1080p gratis, Fast & Furious Spy Racers (2019) Temporada 1 NF WEB-DL 1080p Latino mega 1 link, Fast & Furious Spy Racers (2019) Temporada 1 NF WEB-DL 1080p Latino serie completa, descargar Fast & Furious Spy Racers (2019) Temporada 1 NF WEB-DL 1080p Latino gratis en mega.

Fast & Furious Spy Racers (2019) Temporada 1 NF WEB-DL 1080p Latino pelicula full hd, Fast & Furious Spy Racers (2019) Temporada 1 NF WEB-DL 1080p Latino mega latino, Fast & Furious Spy Racers (2019) Temporada 1 NF WEB-DL 1080p Latino 4k latino, Fast & Furious Spy Racers (2019) Temporada 1 NF WEB-DL 1080p Latino pelicula completa, Fast & Furious Spy Racers (2019) Temporada 1 NF WEB-DL 1080p Latino descargar gratis, descargar Fast & Furious Spy Racers (2019) Temporada 1 NF WEB-DL 1080p Latino pelicula latino, Fast & Furious Spy Racers (2019) Temporada 1 NF WEB-DL 1080p Latino 1 link mega, Fast & Furious Spy Racers (2019) Temporada 1 NF WEB-DL 1080p Latino 1 link google drive, Fast & Furious Spy Racers (2019) Temporada 1 NF WEB-DL 1080p Latino hd 1080p latino.
Comentarios 0