×

¿Problemas para descargar con Mozilla, EDGE? Deshabilita la opción "Abrir vinculos en una pestaña nueva" tal como lo muestra ésta imagen.

Fast & Furious: Hobbs & Shaw (2019) REMUX 1080p Latino

1.613 vistas

Información de Fast & Furious: Hobbs & Shaw (2019) REMUX 1080p Latino

Datos de la película

  • Calidad: Full 1080p
  • Audio: Se especifica abajo de la Sinopsis
  • Subtitulos: Español Latino PGS - Ingles PGS
  • Resolución: 1920x1080
  • Formato: MKV
  • Codec: H.264
  • Encoder: cinemaniahdd
  • Mediainfo: Clic para Mostrar Datos Ver
  • Rápidos y furiosos - Hobbs & Shaw (2019) REMUX 1080p Latino-.mkv
    Format                      : Matroska
    Format version              : Version 4
    File size                   : 32.2 GiB
    Duration                    : 2 h 16 min
    Overall bit rate mode       : Variable
    Overall bit rate            : 33.8 Mb/s
    Movie name                  : Rápidos y furiosos - Hobbs & Shaw (2019) - CinemaniaHDD.Net
    Encoded date                : UTC 2019-10-26 00:45:20
    Writing application         : mkvmerge v38.0.0 ('The Silent Type') 64-bit
    Writing library             : libebml v1.3.9 + libmatroska v1.5.2

    Video
    ID                          : 1
    Format                      : AVC
    Format/Info                 : Advanced Video Codec
    Format profile              : High@L4.1
    Format settings             : CABAC / 4 Ref Frames
    Format settings, CABAC      : Yes
    Format settings, ReFrames   : 4 frames
    Codec ID                    : V_MPEG4/ISO/AVC
    Duration                    : 2 h 16 min
    Bit rate mode               : Variable
    Bit rate                    : 28.7 Mb/s
    Maximum bit rate            : 37.3 Mb/s
    Width                       : 1 920 pixels
    Height                      : 1 080 pixels
    Display aspect ratio        : 16:9
    Frame rate mode             : Constant
    Frame rate                  : 23.976 (24000/1001) FPS
    Color space                 : YUV
    Chroma subsampling          : 4:2:0
    Bit depth                   : 8 bits
    Scan type                   : Progressive
    Bits/(Pixel*Frame)          : 0.576
    Stream size                 : 27.4 GiB (85%)
    Title                       : CinemaniaHDD
    Default                     : Yes
    Forced                      : No

    Audio #1
    ID                          : 2
    Format                      : E-AC-3
    Format/Info                 : Enhanced AC-3
    Commercial name             : Dolby Digital Plus
    Format profile              : Blu-ray Disc
    Codec ID                    : A_EAC3
    Duration                    : 2 h 16 min
    Bit rate mode               : Constant
    Bit rate                    : 768 kb/s
    Channel(s)                  : 8 channels
    Channel layout              : L R C LFE Ls Rs Lb Rb
    Sampling rate               : 48.0 kHz
    Frame rate                  : 31.250 FPS (1536 SPF)
    Compression mode            : Lossy
    Stream size                 : 751 MiB (2%)
    Title                       : Español latino [CinemaniaHDD]
    Language                    : Spanish
    Service kind                : Complete Main
    Default                     : No
    Forced                      : No

    Audio #2
    ID                          : 3
    Format                      : AC-3
    Format/Info                 : Audio Coding 3
    Commercial name             : Dolby Digital
    Codec ID                    : A_AC3
    Duration                    : 2 h 16 min
    Bit rate mode               : Constant
    Bit rate                    : 448 kb/s
    Channel(s)                  : 6 channels
    Channel layout              : L R C LFE Ls Rs
    Sampling rate               : 48.0 kHz
    Frame rate                  : 31.250 FPS (1536 SPF)
    Bit depth                   : 16 bits
    Compression mode            : Lossy
    Delay relative to video     : -17 ms
    Stream size                 : 438 MiB (1%)
    Title                       : Español latino [CinemaniaHDD] [core]
    Language                    : Spanish
    Service kind                : Complete Main
    Default                     : Yes
    Forced                      : No

    Audio #3
    ID                          : 4
    Format                      : MLP FBA 16-ch
    Format/Info                 : Meridian Lossless Packing FBA with 16-channel presentation
    Commercial name             : Dolby TrueHD with Dolby Atmos
    Codec ID                    : A_TRUEHD
    Duration                    : 2 h 16 min
    Bit rate mode               : Variable
    Bit rate                    : 3 141 kb/s
    Maximum bit rate            : 5 394 kb/s
    Channel(s)                  : 8 channels
    Channel layout              : L R C LFE Ls Rs Lb Rb
    Sampling rate               : 48.0 kHz
    Frame rate                  : 1 200.000 FPS (40 SPF)
    Compression mode            : Lossless
    Stream size                 : 3.00 GiB (9%)
    Title                       : Inglés [CinemaniaHDD]
    Language                    : English
    Default                     : No
    Forced                      : No
    Number of dynamic objects   : 11
    Bed channel count           : 1 channel
    Bed channel configuration   : LFE

    Audio #4
    ID                          : 5
    Format                      : AC-3
    Format/Info                 : Audio Coding 3
    Commercial name             : Dolby Digital
    Codec ID                    : A_AC3
    Duration                    : 2 h 16 min
    Bit rate mode               : Constant
    Bit rate                    : 640 kb/s
    Channel(s)                  : 6 channels
    Channel layout              : L R C LFE Ls Rs
    Sampling rate               : 48.0 kHz
    Frame rate                  : 31.250 FPS (1536 SPF)
    Bit depth                   : 16 bits
    Compression mode            : Lossy
    Delay relative to video     : -17 ms
    Stream size                 : 626 MiB (2%)
    Title                       : Inglés [CinemaniaHDD] [core]
    Language                    : English
    Service kind                : Complete Main
    Default                     : No
    Forced                      : No

    Text #1
    ID                          : 6
    Format                      : PGS
    Muxing mode                 : zlib
    Codec ID                    : S_HDMV/PGS
    Codec ID/Info               : Picture based subtitle format used on BDs/HD-DVDs
    Duration                    : 2 h 14 min
    Bit rate                    : 556 b/s
    Count of elements           : 56
    Stream size                 : 549 KiB (0%)
    Title                       : Forzados [CinemaniaHDD]
    Language                    : Spanish
    Default                     : Yes
    Forced                      : Yes

    Text #2
    ID                          : 7
    Format                      : PGS
    Muxing mode                 : zlib
    Codec ID                    : S_HDMV/PGS
    Codec ID/Info               : Picture based subtitle format used on BDs/HD-DVDs
    Duration                    : 2 h 16 min
    Bit rate                    : 41.7 kb/s
    Count of elements           : 3334
    Stream size                 : 40.6 MiB (0%)
    Title                       : Español latino [CinemaniaHDD]
    Language                    : Spanish
    Default                     : No
    Forced                      : No

    Text #3
    ID                          : 8
    Format                      : PGS
    Muxing mode                 : zlib
    Codec ID                    : S_HDMV/PGS
    Codec ID/Info               : Picture based subtitle format used on BDs/HD-DVDs
    Duration                    : 2 h 16 min
    Bit rate                    : 53.8 kb/s
    Count of elements           : 4408
    Stream size                 : 52.6 MiB (0%)
    Title                       : Inglés [CinemaniaHDD]
    Language                    : English
    Default                     : No
    Forced                      : No

    Menu
    00:00:00.000                : :Chapter 01
    00:04:58.131                : :Chapter 02
    00:13:43.489                : :Chapter 03
    00:19:21.451                : :Chapter 04
    00:26:45.979                : :Chapter 05
    00:35:41.514                : :Chapter 06
    00:40:13.244                : :Chapter 07
    00:46:22.029                : :Chapter 08
    00:51:34.216                : :Chapter 09
    00:57:51.801                : :Chapter 10
    01:01:53.251                : :Chapter 11
    01:08:45.162                : :Chapter 12
    01:14:22.833                : :Chapter 13
    01:19:48.074                : :Chapter 14
    01:24:59.260                : :Chapter 15
    01:32:58.197                : :Chapter 16
    01:38:48.923                : :Chapter 17
    01:46:32.969                : :Chapter 18
    01:53:29.594                : :Chapter 19
    02:01:14.809                : :Chapter 20

     

  • Peso: 32.2 GiB

Sinopsis

Luke Hobbs (Dwayne Johnson) y Deckard Shaw (Jason Statham) vuelven a la carga para vivir una nueva aventura en la que ellos dos serán los protagonistas absolutos. Su rivalidad y la gran química entre estos dos personajes del universo Fast & Furious serán la clave de esta nueva historia, en la que deberán trabajar juntos si quieren pararle los pies al villano Brixton (Idris Elba). Además, a la pareja de protagonistas se les unirá un nuevo personaje, Hattie (Vanessa Kirby), la hermana de Shaw.

Español Latino E-AC3 7.1 + core AC3 5.1 – Ingles TruHD 7.1 + core AC3 5.1

Ficha técnica

  • Titulo original: Fast & Furious Presents: Hobbs & Shaw
  • Fecha de lanzamiento: 01-08-2019 (United States of America)
  • Director: David Leitch
  • Género: Acción, Remux

Video trailer de la película

Enlaces de descarga

Rip de Bluray

Descargar Fast & Furious: Hobbs & Shaw (2019) REMUX 1080p Latino




Aportes de DPeliculasHDmega la pass es:dpeliculashdmega.org Aportes de CinemaniaHD la pass es:cinemaniahdd.com
Guardado en : Acción , Remux

Películas relacionadas

descargar Fast & Furious: Hobbs & Shaw (2019) REMUX 1080p Latino Full 1080p 1080p gratis, Fast & Furious: Hobbs & Shaw (2019) REMUX 1080p Latino Full 1080p mega 1 link, Fast & Furious: Hobbs & Shaw (2019) REMUX 1080p Latino Full 1080p pelicula completa, descargar Fast & Furious: Hobbs & Shaw (2019) REMUX 1080p Latino Full 1080p gratis en mega.

Fast & Furious: Hobbs & Shaw (2019) REMUX 1080p Latino pelicula full hd, Fast & Furious: Hobbs & Shaw (2019) REMUX 1080p Latino mega latino, Fast & Furious: Hobbs & Shaw (2019) REMUX 1080p Latino 4k latino, Fast & Furious: Hobbs & Shaw (2019) REMUX 1080p Latino pelicula completa, Fast & Furious: Hobbs & Shaw (2019) REMUX 1080p Latino descargar gratis, descargar Fast & Furious: Hobbs & Shaw (2019) REMUX 1080p Latino pelicula latino, Fast & Furious: Hobbs & Shaw (2019) REMUX 1080p Latino 1 link mega, Fast & Furious: Hobbs & Shaw (2019) REMUX 1080p Latino 1 link google drive, Fast & Furious: Hobbs & Shaw (2019) REMUX 1080p Latino hd 1080p latino.
Comentarios 0