×

¿Problemas para descargar con Mozilla, EDGE? Deshabilita la opción "Abrir vinculos en una pestaña nueva" tal como lo muestra ésta imagen.

Fast & Furious: Hobbs & Shaw (2019) 1080p Latino

2.201 vistas

Información de Fast & Furious: Hobbs & Shaw (2019) 1080p Latino

Datos de la película

  • Calidad: 1080p
  • Audio: Español Latino AC3 5.1 BLURAY - Ingles AC3 5.1 BLURAY
  • Subtitulos: Español Latino SRT- FORZADOS SRT
  • Resolución: 1920x804
  • Formato: MKV
  • Codec: H.264
  • Encoder: cinemaniahdd
  • Mediainfo: Clic para Mostrar Datos Ver
  • Fast & Furious Hobbs & Shaw (2019) 1080p Latino.mkv
    Format                      : Matroska
    Format version              : Version 4
    File size                   : 4.18 GiB
    Duration                    : 2 h 16 min
    Overall bit rate            : 4 372 kb/s
    Movie name                  : Fast & Furious Hobbs & Shaw (2019) - CinemaniaHDD.Net
    Encoded date                : UTC 2019-10-24 18:55:02
    Writing application         : mkvmerge v38.0.0 ('The Silent Type') 64-bit
    Writing library             : libebml v1.3.9 + libmatroska v1.5.2

    Video
    ID                          : 1
    Format                      : AVC
    Format/Info                 : Advanced Video Codec
    Format profile              : Main@L4
    Format settings             : CABAC / 5 Ref Frames
    Format settings, CABAC      : Yes
    Format settings, ReFrames   : 5 frames
    Codec ID                    : V_MPEG4/ISO/AVC
    Duration                    : 2 h 16 min
    Bit rate                    : 3 500 kb/s
    Width                       : 1 920 pixels
    Height                      : 804 pixels
    Display aspect ratio        : 2.40:1
    Frame rate mode             : Constant
    Frame rate                  : 23.976 (24000/1001) FPS
    Color space                 : YUV
    Chroma subsampling          : 4:2:0
    Bit depth                   : 8 bits
    Scan type                   : Progressive
    Bits/(Pixel*Frame)          : 0.095
    Stream size                 : 3.32 GiB (79%)
    Title                       : CinemaniaHDD
    Writing library             : x264 core 157 r2935 545de2f
    Encoding settings           : cabac=1 / ref=5 / deblock=1:0:0 / analyse=0x1:0x111 / me=hex / subme=8 / psy=1 / psy_rd=1.00:0.00 / mixed_ref=1 / me_range=16 / chroma_me=1 / trellis=2 / 8x8dct=0 / cqm=0 / deadzone=21,11 / fast_pskip=1 / chroma_qp_offset=-2 / threads=25 / lookahead_threads=4 / sliced_threads=0 / nr=0 / decimate=1 / interlaced=0 / bluray_compat=0 / constrained_intra=0 / bframes=3 / b_pyramid=2 / b_adapt=1 / b_bias=0 / direct=3 / weightb=1 / open_gop=0 / weightp=2 / keyint=240 / keyint_min=24 / scenecut=40 / intra_refresh=0 / rc_lookahead=50 / rc=abr / mbtree=1 / bitrate=3500 / ratetol=1.0 / qcomp=0.60 / qpmin=0 / qpmax=69 / qpstep=4 / vbv_maxrate=20000 / vbv_bufsize=25000 / nal_hrd=none / filler=0 / ip_ratio=1.40 / aq=1:1.00
    Default                     : Yes
    Forced                      : No
    Color range                 : Limited
    Color primaries             : BT.709
    Transfer characteristics    : BT.709
    Matrix coefficients         : BT.709

    Audio #1
    ID                          : 2
    Format                      : AC-3
    Format/Info                 : Audio Coding 3
    Commercial name             : Dolby Digital
    Codec ID                    : A_AC3
    Duration                    : 2 h 16 min
    Bit rate mode               : Constant
    Bit rate                    : 448 kb/s
    Channel(s)                  : 6 channels
    Channel layout              : L R C LFE Ls Rs
    Sampling rate               : 48.0 kHz
    Frame rate                  : 31.250 FPS (1536 SPF)
    Bit depth                   : 16 bits
    Compression mode            : Lossy
    Delay relative to video     : -5 ms
    Stream size                 : 438 MiB (10%)
    Title                       : Español latino [CinemaniaHDD]
    Language                    : Spanish
    Service kind                : Complete Main
    Default                     : Yes
    Forced                      : No

    Audio #2
    ID                          : 3
    Format                      : AC-3
    Format/Info                 : Audio Coding 3
    Commercial name             : Dolby Digital
    Codec ID                    : A_AC3
    Duration                    : 2 h 16 min
    Bit rate mode               : Constant
    Bit rate                    : 448 kb/s
    Channel(s)                  : 6 channels
    Channel layout              : L R C LFE Ls Rs
    Sampling rate               : 48.0 kHz
    Frame rate                  : 31.250 FPS (1536 SPF)
    Bit depth                   : 16 bits
    Compression mode            : Lossy
    Delay relative to video     : -5 ms
    Stream size                 : 438 MiB (10%)
    Title                       : Inglés [CinemaniaHDD]
    Language                    : English
    Service kind                : Complete Main
    Default                     : No
    Forced                      : No

    Text #1
    ID                          : 4
    Format                      : UTF-8
    Codec ID                    : S_TEXT/UTF8
    Codec ID/Info               : UTF-8 Plain Text
    Duration                    : 2 h 14 min
    Bit rate                    : 1 b/s
    Count of elements           : 47
    Stream size                 : 1.10 KiB (0%)
    Title                       : Forzados [CinemaniaHDD]
    Language                    : Spanish
    Default                     : Yes
    Forced                      : Yes

    Text #2
    ID                          : 5
    Format                      : UTF-8
    Codec ID                    : S_TEXT/UTF8
    Codec ID/Info               : UTF-8 Plain Text
    Duration                    : 2 h 15 min
    Bit rate                    : 57 b/s
    Count of elements           : 1666
    Stream size                 : 57.7 KiB (0%)
    Title                       : Español latino [CinemaniaHDD]
    Language                    : Spanish
    Default                     : No
    Forced                      : No

    Menu
    00:00:00.000                : :Chapter 1
    00:04:58.298                : :Chapter 2
    00:13:43.656                : :Chapter 3
    00:19:21.452                : :Chapter 4
    00:26:46.146                : :Chapter 5
    00:35:41.556                : :Chapter 6
    00:40:13.411                : :Chapter 7
    00:46:22.196                : :Chapter 8
    00:51:34.300                : :Chapter 9
    00:57:51.802                : :Chapter 10
    01:01:53.418                : :Chapter 11
    01:08:45.163                : :Chapter 12
    01:14:22.917                : :Chapter 13
    01:19:48.075                : :Chapter 14
    01:24:59.261                : :Chapter 15
    01:32:58.198                : :Chapter 16
    01:38:48.923                : :Chapter 17
    01:46:32.970                : :Chapter 18
    01:53:29.636                : :Chapter 19
    02:01:14.976                : :Chapter 20

     

  • Peso: 4.18 GiB

Sinopsis

Luke Hobbs (Dwayne Johnson) y Deckard Shaw (Jason Statham) vuelven a la carga para vivir una nueva aventura en la que ellos dos serán los protagonistas absolutos. Su rivalidad y la gran química entre estos dos personajes del universo Fast & Furious serán la clave de esta nueva historia, en la que deberán trabajar juntos si quieren pararle los pies al villano Brixton (Idris Elba). Además, a la pareja de protagonistas se les unirá un nuevo personaje, Hattie (Vanessa Kirby), la hermana de Shaw.

Ficha técnica

  • Titulo original: Fast & Furious Presents: Hobbs & Shaw
  • Fecha de lanzamiento: 01-08-2019 (United States of America)
  • Director: David Leitch
  • Género: Acción, HD 1080p

Video trailer de la película

Enlaces de descarga

Rip de Bluray

Descargar Fast & Furious: Hobbs & Shaw (2019) 1080p Latino




Aportes de DPeliculasHDmega la pass es:dpeliculashdmega.org Aportes de CinemaniaHD la pass es:cinemaniahdd.com
Guardado en : Acción , HD 1080p

Películas relacionadas

  • El Cuartel Secreto (2022) WEB-DL 4K UHD HDR Latino

    El Cuartel Secreto (2022) WEB-DL 4K UHD HDR Latino

    2022
    El Cuartel Secreto (2022) WEB-DL 4K UHD HDR Latino

    1h 44m 2022

    Descargar El Cuartel Secreto (2022) WEB-DL 4K UHD HDR Latino. Mientras pasan el rato después de la escuela,...

    Director: Henry Joost

    Género: 4K HDR

    Actores: Zeb Slone

  • El Cuartel Secreto (2022) WEB-DL 1080p Latino

    El Cuartel Secreto (2022) WEB-DL 1080p Latino

    2022
    El Cuartel Secreto (2022) WEB-DL 1080p Latino

    1h 44m 2022

    Descargar El Cuartel Secreto (2022) WEB-DL 1080p Latino. Mientras pasan el rato después de la escuela,...

    Director: Henry Joost

    Género: Acción

    Actores: Zeb Slone

  • Men in Black (1997) REMUX 4K HDR Latino – CMHDD

    Men in Black (1997) REMUX 4K HDR Latino – CMHDD

    1997
    Men in Black (1997) REMUX 4K HDR Latino – CMHDD

    1h 34m 1997

    Durante muchos años los extraterrestres han vivido en la Tierra, mezclados con los humanos, sin que...

    Director: Tyrone S. Walker

    Género: Acción

    Actores: Willie C. Carpenter

  • Borrego: Sal Del Camino (2022) HD 1080p Latino

    Borrego: Sal Del Camino (2022) HD 1080p Latino

    2022
    Borrego: Sal Del Camino (2022) HD 1080p Latino

    1h 42m 2022

    Descargar Borrego: Sal Del Camino (2022) HD 1080p Latino. Una joven botánica se traslada a un pequeño...

    Director: Jesse Harris

    Género: Crimen

    Actores: Olivia Trujillo

  • Tren Bala (2022) WEB-DL 4K UHD HDR Latino

    Tren Bala (2022) WEB-DL 4K UHD HDR Latino

    2022
    Tren Bala (2022) WEB-DL 4K UHD HDR Latino

    2h 7m 2022

    Descargar Tren Bala (2022) WEB-DL 4K UHD HDR Latino. El desafortunado asesino "Catarina" está decidido...

    Director: Paul Barry

    Género: 4K HDR

    Actores: Zooey Miyoshi

descargar Fast & Furious: Hobbs & Shaw (2019) 1080p Latino 1080p 1080p gratis, Fast & Furious: Hobbs & Shaw (2019) 1080p Latino 1080p mega 1 link, Fast & Furious: Hobbs & Shaw (2019) 1080p Latino 1080p pelicula completa, descargar Fast & Furious: Hobbs & Shaw (2019) 1080p Latino 1080p gratis en mega.

Fast & Furious: Hobbs & Shaw (2019) 1080p Latino pelicula full hd, Fast & Furious: Hobbs & Shaw (2019) 1080p Latino mega latino, Fast & Furious: Hobbs & Shaw (2019) 1080p Latino 4k latino, Fast & Furious: Hobbs & Shaw (2019) 1080p Latino pelicula completa, Fast & Furious: Hobbs & Shaw (2019) 1080p Latino descargar gratis, descargar Fast & Furious: Hobbs & Shaw (2019) 1080p Latino pelicula latino, Fast & Furious: Hobbs & Shaw (2019) 1080p Latino 1 link mega, Fast & Furious: Hobbs & Shaw (2019) 1080p Latino 1 link google drive, Fast & Furious: Hobbs & Shaw (2019) 1080p Latino hd 1080p latino.
Comentarios 0