×

¿Problemas para descargar con Mozilla, EDGE? Deshabilita la opción "Abrir vinculos en una pestaña nueva" tal como lo muestra ésta imagen.

Farruko Live On Max (2021) HMAX WEB-DL 1080p Latino

102 vistas

Información de Farruko Live On Max (2021) HMAX WEB-DL 1080p Latino

Datos de la película

  • Calidad:
  • Audio: Español Latino AC3 2.0
  • Subtitulos: No
  • Resolución: 1920x1080
  • Formato: MKV
  • Codec: H.264
  • Encoder: cinemaniahdd
  • Mediainfo: Clic para Mostrar Datos Ver
  • Farruko Live On Max (2021) HMAX WEB-DL 1080p Latino [CNMNHDD].mkv
    Format                      : Matroska
    Format version              : Version 4
    File size                   : 4.44 GiB
    Duration                    : 1 h 16 min
    Overall bit rate mode       : Constant
    Overall bit rate            : 8 359 kb/s
    Movie name                  : Farruko Live On Max (2021) - CinemaniaHDD.Net
    Encoded date                : UTC 2021-11-21 19:01:39
    Writing application         : mkvmerge v56.1.0 ('My Friend') 64-bit
    Writing library             : libebml v1.4.2 + libmatroska v1.6.4

    Video
    ID                          : 1
    Format                      : AVC
    Format/Info                 : Advanced Video Codec
    Format profile              : High@L4
    Format settings             : CABAC / 4 Ref Frames
    Format settings, CABAC      : Yes
    Format settings, Reference  : 4 frames
    Codec ID                    : V_MPEG4/ISO/AVC
    Duration                    : 1 h 16 min
    Bit rate mode               : Constant
    Bit rate                    : 8 000 kb/s
    Width                       : 1 920 pixels
    Height                      : 1 080 pixels
    Display aspect ratio        : 16:9
    Frame rate mode             : Constant
    Frame rate                  : 29.970 (30000/1001) FPS
    Color space                 : YUV
    Chroma subsampling          : 4:2:0
    Bit depth                   : 8 bits
    Scan type                   : Progressive
    Bits/(Pixel*Frame)          : 0.129
    Stream size                 : 4.24 GiB (95%)
    Title                       : CinemaniaHDD
    Default                     : Yes
    Forced                      : No

    Audio
    ID                          : 2
    Format                      : AC-3
    Format/Info                 : Audio Coding 3
    Commercial name             : Dolby Digital
    Codec ID                    : A_AC3
    Duration                    : 1 h 16 min
    Bit rate mode               : Constant
    Bit rate                    : 384 kb/s
    Channel(s)                  : 2 channels
    Channel layout              : L R
    Sampling rate               : 48.0 kHz
    Frame rate                  : 31.250 FPS (1536 SPF)
    Compression mode            : Lossy
    Stream size                 : 209 MiB (5%)
    Title                       : Español latino [CinemaniaHDD]
    Language                    : Spanish
    Service kind                : Complete Main
    Default                     : Yes
    Forced                      : No

     

  • Peso: 4.44 GiB

Sinopsis

El cantautor puertorriqueño Farruko estelariza este evento original de HBO Max con un concierto exclusivo e íntimo donde demuestra por qué es actualmente uno de los mejores artistas de música urbana del mundo.

Ficha técnica

  • Titulo original: Farruko Live On Max
  • Fecha de lanzamiento: 13-11-2021
  • Género: HBOMAX, Música

Video trailer de la película

Enlaces de descarga

Rip de Bluray

Descargar Farruko Live On Max (2021) HMAX WEB-DL 1080p Latino




Aportes de DPeliculasHDmega la pass es:dpeliculashdmega.org Aportes de CinemaniaHD la pass es:cinemaniahdd.com
Guardado en : HBOMAX , Música

Películas relacionadas

  • Rick y Morty (2022) Temporada 6 WEB-DL 1080p Latino

    Rick y Morty (2022) Temporada 6 WEB-DL 1080p Latino

    2013
    Rick y Morty (2022) Temporada 6 WEB-DL 1080p Latino

    0h 22m 2013

    Comedia animada que narra las aventuras de un científico loco Rick Sánchez, que regresa después de...

    Director: Justin Roiland

    Género: Action & Adventure

    Actores: Spencer Grammer

  • Yo era famoso (2022) NF WEB-DL 1080p Latino

    Yo era famoso (2022) NF WEB-DL 1080p Latino

    2022
    Yo era famoso (2022) NF WEB-DL 1080p Latino

    1h 44m 2022

    Descargar Yo era famoso (2022) NF WEB-DL 1080p Latino. Vince, una ex estrella del pop desesperada que...

    Director: Júlia Gallart Sunyer

    Género: Comedia

    Actores: Racheal Ofori

  • Stargirl (2022) Temporada 3 WEB-DL 1080p Latino

    Stargirl (2022) Temporada 3 WEB-DL 1080p Latino

    2020
    Stargirl (2022) Temporada 3 WEB-DL 1080p Latino

    0h 43m 2020

    Courtney Withmore es una estudiante de instituto que ayuda a un grupo de jóvenes héroes a acabar con...

    Director: Geoff Johns

    Género: Action & Adventure

    Actores: Yvette Monreal

  • Elvis (2022) HD 1080p Latino

    Elvis (2022) HD 1080p Latino

    2022
    Elvis (2022) HD 1080p Latino

    2h 39m 2022

    Descargar Elvis (2022) HD 1080p Latino. La película explora la vida y la música de Elvis Presley (Butler)...

    Director: Baz Luhrmann

    Género: Drama

    Actores: Yola

  • Elvis (2022) PLACEBO Full HD 1080p Latino

    Elvis (2022) PLACEBO Full HD 1080p Latino

    2022
    Elvis (2022) PLACEBO Full HD 1080p Latino

    2h 39m 2022

    Descargar Elvis (2022) PLACEBO Full HD 1080p Latino. La película explora la vida y la música de Elvis...

    Director: Baz Luhrmann

    Género: Drama

    Actores: Yola

descargar Farruko Live On Max (2021) HMAX WEB-DL 1080p Latino 1080p gratis, Farruko Live On Max (2021) HMAX WEB-DL 1080p Latino mega 1 link, Farruko Live On Max (2021) HMAX WEB-DL 1080p Latino pelicula completa, descargar Farruko Live On Max (2021) HMAX WEB-DL 1080p Latino gratis en mega.

Farruko Live On Max (2021) HMAX WEB-DL 1080p Latino pelicula full hd, Farruko Live On Max (2021) HMAX WEB-DL 1080p Latino mega latino, Farruko Live On Max (2021) HMAX WEB-DL 1080p Latino 4k latino, Farruko Live On Max (2021) HMAX WEB-DL 1080p Latino pelicula completa, Farruko Live On Max (2021) HMAX WEB-DL 1080p Latino descargar gratis, descargar Farruko Live On Max (2021) HMAX WEB-DL 1080p Latino pelicula latino, Farruko Live On Max (2021) HMAX WEB-DL 1080p Latino 1 link mega, Farruko Live On Max (2021) HMAX WEB-DL 1080p Latino 1 link google drive, Farruko Live On Max (2021) HMAX WEB-DL 1080p Latino hd 1080p latino.
Comentarios 0