×

¿Problemas para descargar con Mozilla, EDGE? Deshabilita la opción "Abrir vinculos en una pestaña nueva" tal como lo muestra ésta imagen.

Fargo (2017) Tercera Temporada AMZN WEB-DL 1080p Latino

71 vistas

Información de Fargo (2017) Tercera Temporada AMZN WEB-DL 1080p Latino

Datos de la película

  • Calidad: 1080p
  • Audio: Español Latino AC3 5.1 WEB-DL - Ingles AC3 5.1 WEB-DL
  • Subtitulos: Español Latino SRT- FORZADOS SRT
  • Resolución: 1920x1080
  • Formato: MKV
  • Codec: H.264
  • Encoder: cinemaniahdd
  • Mediainfo: Clic para Mostrar Datos Ver
  • Fargo T03E01 AMZN WEB-DL 1080p Latino [CNMNHDD].mkv
    Format                      : Matroska
    Format version              : Version 4
    File size                   : 5.13 GiB
    Duration                    : 1 h 7 min
    Overall bit rate            : 11.0 Mb/s
    Movie name                  : Fargo S03E01 - The Law of Vacant Places [1080p] - CinemaniaHDD.Net
    Encoded date                : UTC 2024-04-12 01:23:32
    Writing application         : mkvmerge v56.1.0 ('My Friend') 64-bit
    Writing library             : libebml v1.4.2 + libmatroska v1.6.4

    Video
    ID                          : 1
    Format                      : AVC
    Format/Info                 : Advanced Video Codec
    Format profile              : High@L4
    Format settings             : CABAC / 4 Ref Frames
    Format settings, CABAC      : Yes
    Format settings, Reference  : 4 frames
    Codec ID                    : V_MPEG4/ISO/AVC
    Duration                    : 1 h 7 min
    Bit rate mode               : Constant
    Bit rate                    : 9 030 kb/s
    Nominal bit rate            : 10 000 kb/s
    Width                       : 1 920 pixels
    Height                      : 1 080 pixels
    Display aspect ratio        : 16:9
    Frame rate mode             : Constant
    Frame rate                  : 23.976 (24000/1001) FPS
    Color space                 : YUV
    Chroma subsampling          : 4:2:0
    Bit depth                   : 8 bits
    Scan type                   : Progressive
    Bits/(Pixel*Frame)          : 0.182
    Stream size                 : 4.23 GiB (82%)
    Title                       : CinemaniaHDD.Net
    Default                     : Yes
    Forced                      : No
    Color range                 : Limited
    Color primaries             : BT.709
    Transfer characteristics    : BT.709
    Matrix coefficients         : BT.709

    Audio #1
    ID                          : 2
    Format                      : AC-3
    Format/Info                 : Audio Coding 3
    Commercial name             : Dolby Digital
    Codec ID                    : A_AC3
    Duration                    : 1 h 7 min
    Bit rate mode               : Constant
    Bit rate                    : 640 kb/s
    Channel(s)                  : 6 channels
    Channel layout              : L R C LFE Ls Rs
    Sampling rate               : 48.0 kHz
    Frame rate                  : 31.250 FPS (1536 SPF)
    Compression mode            : Lossy
    Stream size                 : 307 MiB (6%)
    Title                       : Español Latino (AC3) [CinemaniaHDD]
    Language                    : Spanish
    Service kind                : Complete Main
    Default                     : Yes
    Forced                      : No

    Audio #2
    ID                          : 3
    Format                      : E-AC-3
    Format/Info                 : Enhanced AC-3
    Commercial name             : Dolby Digital Plus
    Codec ID                    : A_EAC3
    Duration                    : 1 h 7 min
    Bit rate mode               : Constant
    Bit rate                    : 640 kb/s
    Channel(s)                  : 6 channels
    Channel layout              : L R C LFE Ls Rs
    Sampling rate               : 48.0 kHz
    Frame rate                  : 31.250 FPS (1536 SPF)
    Compression mode            : Lossy
    Stream size                 : 307 MiB (6%)
    Title                       : Español Latino (E-AC3) [CinemaniaHDD]
    Language                    : Spanish
    Service kind                : Complete Main
    Default                     : No
    Forced                      : No

    Audio #3
    ID                          : 4
    Format                      : E-AC-3
    Format/Info                 : Enhanced AC-3
    Commercial name             : Dolby Digital Plus
    Codec ID                    : A_EAC3
    Duration                    : 1 h 7 min
    Bit rate mode               : Constant
    Bit rate                    : 640 kb/s
    Channel(s)                  : 6 channels
    Channel layout              : L R C LFE Ls Rs
    Sampling rate               : 48.0 kHz
    Frame rate                  : 31.250 FPS (1536 SPF)
    Compression mode            : Lossy
    Stream size                 : 307 MiB (6%)
    Title                       : Inglés (Original) [CinemaniaHDD]
    Language                    : English
    Service kind                : Complete Main
    Default                     : No
    Forced                      : No

    Text #1
    ID                          : 5
    Format                      : UTF-8
    Codec ID                    : S_TEXT/UTF8
    Codec ID/Info               : UTF-8 Plain Text
    Duration                    : 1 h 5 min
    Bit rate                    : 4 b/s
    Count of elements           : 82
    Stream size                 : 2.33 KiB (0%)
    Title                       : Forzados [CinemaniaHDD]
    Language                    : Spanish
    Default                     : Yes
    Forced                      : Yes

    Text #2
    ID                          : 6
    Format                      : UTF-8
    Codec ID                    : S_TEXT/UTF8
    Codec ID/Info               : UTF-8 Plain Text
    Duration                    : 1 h 5 min
    Bit rate                    : 46 b/s
    Count of elements           : 776
    Stream size                 : 22.4 KiB (0%)
    Title                       : Español Latino [CinemaniaHDD]
    Language                    : Spanish
    Default                     : No
    Forced                      : No

    Text #3
    ID                          : 7
    Format                      : UTF-8
    Codec ID                    : S_TEXT/UTF8
    Codec ID/Info               : UTF-8 Plain Text
    Duration                    : 1 h 5 min
    Bit rate                    : 46 b/s
    Count of elements           : 834
    Stream size                 : 22.0 KiB (0%)
    Title                       : Inglés [CinemaniaHDD]
    Language                    : English
    Default                     : No
    Forced                      : No

    Menu
    00:00:00.000                : Jakob is interrogated
    00:06:43.000                : Buck makes an offer to Emmit and Sy
    00:09:03.000                : Ray asks his brother for money
    00:17:03.000                : Ray and Nikki discuss what to do next
    00:19:36.000                : Opening Credits
    00:20:00.000                : Break
    00:20:03.000                : Nathan works at the Red Owl
    00:21:50.000                : Ray gives Maurice an assignment
    00:26:24.000                : Emmit is called into the office
    00:30:12.000                : Break
    00:30:16.000                : An investment not a loan
    00:35:49.000                : Break
    00:35:52.000                : Ennis makes Nathan a carving
    00:37:59.000                : Ray and Nikki play cards
    00:40:14.000                : Maurice gets lost
    00:41:29.000                : Break
    00:41:32.000                : Gloria investigates the break-in
    00:50:50.000                : Break
    00:50:54.000                : Maurice blackmails Ray
    01:04:00.000                : End Credits
    01:05:17.000                : Previews

     

  • Peso: 5.13 GiB Aprox ---- 39 GiB in 10 Chapters.

Sinopsis

La rivalidad entre dos hermanos, en ambos lados del sueño americano, sigue un camino retorcido que comienza con pequeños robos pero pronto conduce a asesinatos, mafiosos y un puente competitivo despiadado.

Ficha técnica

Video trailer de la película

Enlaces de descarga

Rip de Bluray

Descargar Fargo (2017) Tercera Temporada AMZN WEB-DL 1080p Latino




Aportes de DPeliculasHDmega la pass es:dpeliculashdmega.org Aportes de CinemaniaHD la pass es:cinemaniahdd.com Aportes recientes:cinemaniahdd.net
Guardado en : Crimen , Drama , Series

Películas relacionadas

descargar Fargo (2017) Tercera Temporada AMZN WEB-DL 1080p Latino 1080p 1080p gratis, Fargo (2017) Tercera Temporada AMZN WEB-DL 1080p Latino 1080p mega 1 link, Fargo (2017) Tercera Temporada AMZN WEB-DL 1080p Latino 1080p serie completa, descargar Fargo (2017) Tercera Temporada AMZN WEB-DL 1080p Latino 1080p gratis en mega.

Fargo (2017) Tercera Temporada AMZN WEB-DL 1080p Latino pelicula full hd, Fargo (2017) Tercera Temporada AMZN WEB-DL 1080p Latino mega latino, Fargo (2017) Tercera Temporada AMZN WEB-DL 1080p Latino 4k latino, Fargo (2017) Tercera Temporada AMZN WEB-DL 1080p Latino pelicula completa, Fargo (2017) Tercera Temporada AMZN WEB-DL 1080p Latino descargar gratis, descargar Fargo (2017) Tercera Temporada AMZN WEB-DL 1080p Latino pelicula latino, Fargo (2017) Tercera Temporada AMZN WEB-DL 1080p Latino 1 link mega, Fargo (2017) Tercera Temporada AMZN WEB-DL 1080p Latino 1 link google drive, Fargo (2017) Tercera Temporada AMZN WEB-DL 1080p Latino hd 1080p latino.
Comentarios 0