×

¿Problemas para descargar con Mozilla, EDGE? Deshabilita la opción "Abrir vinculos en una pestaña nueva" tal como lo muestra ésta imagen.

Fargo (2015) Segunda Temporada AMZN WEB-DL 1080p Latino

78 vistas

Información de Fargo (2015) Segunda Temporada AMZN WEB-DL 1080p Latino

Datos de la película

  • Calidad: 1080p
  • Audio: Español Latino AC3 5.1 WEB-DL - Ingles AC3 5.1 WEB-DL
  • Subtitulos: Español Latino SRT- FORZADOS SRT
  • Resolución: 1920x1080
  • Formato: MKV
  • Codec: H.264
  • Encoder: cinemaniahdd
  • Mediainfo: Clic para Mostrar Datos Ver
  • Fargo T02E01 AMZN WEB-DL 1080p Latino [CNMNHDD].mkv
    Format                      : Matroska
    Format version              : Version 4
    File size                   : 3.86 GiB
    Duration                    : 50 min 35 s
    Overall bit rate            : 10.9 Mb/s
    Movie name                  : Fargo S02E01 - Waiting For Dutch [1080p] - CinemaniaHDD.Net
    Encoded date                : UTC 2024-04-11 23:04:06
    Writing application         : mkvmerge v56.1.0 ('My Friend') 64-bit
    Writing library             : libebml v1.4.2 + libmatroska v1.6.4

    Video
    ID                          : 1
    Format                      : AVC
    Format/Info                 : Advanced Video Codec
    Format profile              : High@L4
    Format settings             : CABAC / 4 Ref Frames
    Format settings, CABAC      : Yes
    Format settings, Reference  : 4 frames
    Codec ID                    : V_MPEG4/ISO/AVC
    Duration                    : 50 min 35 s
    Bit rate mode               : Constant
    Bit rate                    : 8 993 kb/s
    Nominal bit rate            : 10 000 kb/s
    Width                       : 1 920 pixels
    Height                      : 1 080 pixels
    Display aspect ratio        : 16:9
    Frame rate mode             : Constant
    Frame rate                  : 23.976 (24000/1001) FPS
    Color space                 : YUV
    Chroma subsampling          : 4:2:0
    Bit depth                   : 8 bits
    Scan type                   : Progressive
    Bits/(Pixel*Frame)          : 0.181
    Stream size                 : 3.18 GiB (82%)
    Title                       : CinemaniaHDD.Net
    Default                     : Yes
    Forced                      : No
    Color range                 : Limited
    Color primaries             : BT.709
    Transfer characteristics    : BT.709
    Matrix coefficients         : BT.709

    Audio #1
    ID                          : 2
    Format                      : AC-3
    Format/Info                 : Audio Coding 3
    Commercial name             : Dolby Digital
    Codec ID                    : A_AC3
    Duration                    : 50 min 35 s
    Bit rate mode               : Constant
    Bit rate                    : 640 kb/s
    Channel(s)                  : 6 channels
    Channel layout              : L R C LFE Ls Rs
    Sampling rate               : 48.0 kHz
    Frame rate                  : 31.250 FPS (1536 SPF)
    Compression mode            : Lossy
    Stream size                 : 232 MiB (6%)
    Title                       : Español Latino (AC3) [CinemaniaHDD]
    Language                    : Spanish
    Service kind                : Complete Main
    Default                     : Yes
    Forced                      : No

    Audio #2
    ID                          : 3
    Format                      : E-AC-3
    Format/Info                 : Enhanced AC-3
    Commercial name             : Dolby Digital Plus
    Codec ID                    : A_EAC3
    Duration                    : 50 min 35 s
    Bit rate mode               : Constant
    Bit rate                    : 640 kb/s
    Channel(s)                  : 6 channels
    Channel layout              : L R C LFE Ls Rs
    Sampling rate               : 48.0 kHz
    Frame rate                  : 31.250 FPS (1536 SPF)
    Compression mode            : Lossy
    Stream size                 : 232 MiB (6%)
    Title                       : Español Latino (E-AC3) [CinemaniaHDD]
    Language                    : Spanish
    Service kind                : Complete Main
    Default                     : No
    Forced                      : No

    Audio #3
    ID                          : 4
    Format                      : E-AC-3
    Format/Info                 : Enhanced AC-3
    Commercial name             : Dolby Digital Plus
    Codec ID                    : A_EAC3
    Duration                    : 50 min 35 s
    Bit rate mode               : Constant
    Bit rate                    : 640 kb/s
    Channel(s)                  : 6 channels
    Channel layout              : L R C LFE Ls Rs
    Sampling rate               : 48.0 kHz
    Frame rate                  : 31.250 FPS (1536 SPF)
    Compression mode            : Lossy
    Stream size                 : 232 MiB (6%)
    Title                       : Inglés (Original) [CinemaniaHDD]
    Language                    : English
    Service kind                : Complete Main
    Default                     : No
    Forced                      : No

    Text #1
    ID                          : 5
    Format                      : UTF-8
    Codec ID                    : S_TEXT/UTF8
    Codec ID/Info               : UTF-8 Plain Text
    Duration                    : 49 min 16 s
    Bit rate                    : 1 b/s
    Count of elements           : 19
    Stream size                 : 681 Bytes (0%)
    Title                       : Forzados [CinemaniaHDD]
    Language                    : Spanish
    Default                     : Yes
    Forced                      : Yes

    Text #2
    ID                          : 6
    Format                      : UTF-8
    Codec ID                    : S_TEXT/UTF8
    Codec ID/Info               : UTF-8 Plain Text
    Duration                    : 49 min 25 s
    Bit rate                    : 50 b/s
    Count of elements           : 575
    Stream size                 : 18.3 KiB (0%)
    Title                       : Español Latino [CinemaniaHDD]
    Language                    : Spanish
    Default                     : No
    Forced                      : No

    Text #3
    ID                          : 7
    Format                      : UTF-8
    Codec ID                    : S_TEXT/UTF8
    Codec ID/Info               : UTF-8 Plain Text
    Duration                    : 46 min 16 s
    Bit rate                    : 57 b/s
    Count of elements           : 779
    Stream size                 : 19.5 KiB (0%)
    Title                       : Inglés [CinemaniaHDD]
    Language                    : English
    Default                     : No
    Forced                      : No

    Menu
    00:00:00.000                : The production waits for Dutch
    00:03:06.000                : Rye gets a lecture on family
    00:06:00.000                : Mom sees a discrepancy in the books
    00:08:08.000                : Rye checks on a deal
    00:10:32.000                : Rye finds his judge
    00:12:23.000                : The judge responds poorly to Rye's proposition
    00:20:03.000                : Break
    00:20:07.000                : Lou reads his daughter a story
    00:22:26.000                : Lou arrives on the crime scene
    00:26:54.000                : That's a shoe all right
    00:28:27.000                : Break
    00:28:29.000                : Wasting meat should be a crime
    00:29:13.000                : Lou grabs a drink with friends
    00:32:09.000                : Ed returns home to Hamburger Helper and tater tots
    00:33:22.000                : Lou drinks from the carton
    00:35:03.000                : Break
    00:35:05.000                : Peggy and Ed discuss children
    00:43:30.000                : Break
    00:43:33.000                : Betsy and Lou kiss each other good night
    00:45:31.000                : Joe breaks down the Gerhardt family
    00:47:10.000                : End Credits

     

  • Peso: 3.86 GiB Aprox ---- 42 GiB in 10 Chapters.

Sinopsis

El nuevo caso de «crimen real» en el último capítulo de Fargo lo lleva al año 1979 en Sioux Falls, Dakota del Sur y Luverne, Minnesota. Lou Solverson, un joven oficial de policía estatal que acaba de regresar de Vietnam, investiga un caso que involucra a una banda criminal local, un importante sindicato de la mafia y una esteticista de un pequeño pueblo, Peggy Blumquist, junto con su esposo Ed, el asistente del carnicero local.

Ficha técnica

Video trailer de la película

Enlaces de descarga

Rip de Bluray

Descargar Fargo (2015) Segunda Temporada AMZN WEB-DL 1080p Latino




Aportes de DPeliculasHDmega la pass es:dpeliculashdmega.org Aportes de CinemaniaHD la pass es:cinemaniahdd.com Aportes recientes:cinemaniahdd.net
Guardado en : Crimen , Drama

Películas relacionadas

  • Red de venganza (2023) HD 1080p Latino

    Red de venganza (2023) HD 1080p Latino

    2023
    Red de venganza (2023) HD 1080p Latino

    1h 25m 2023

    Descargar Red de venganza (2023) HD 1080p Latino. Analiza los problemas que surgen entre una madre (Summer...

    Director: Amy Redford

    Género: Drama

    Actores: Summer Phoenix

  • Red de venganza (2023) REMUX 1080p Latino

    Red de venganza (2023) REMUX 1080p Latino

    2023
    Red de venganza (2023) REMUX 1080p Latino

    1h 25m 2023

    Descargar Red de venganza (2023) REMUX 1080p Latino. Analiza los problemas que surgen entre una madre...

    Director: Amy Redford

    Género: Drama

    Actores: Summer Phoenix

  • Recuerdos Mortales (2024) WEB-DL 1080p Latino

    Recuerdos Mortales (2024) WEB-DL 1080p Latino

    2024
    Recuerdos Mortales (2024) WEB-DL 1080p Latino

    1h 52m 2024

    Descargar Recuerdos Mortales (2024) WEB-DL 1080p Latino. Después de someterse a un tratamiento de vanguardia...

    Director: Adam Cooper

    Género: Crimen

    Actores: Tommy Flanagan

descargar Fargo (2015) Segunda Temporada AMZN WEB-DL 1080p Latino 1080p 1080p gratis, Fargo (2015) Segunda Temporada AMZN WEB-DL 1080p Latino 1080p mega 1 link, Fargo (2015) Segunda Temporada AMZN WEB-DL 1080p Latino 1080p pelicula completa, descargar Fargo (2015) Segunda Temporada AMZN WEB-DL 1080p Latino 1080p gratis en mega.

Fargo (2015) Segunda Temporada AMZN WEB-DL 1080p Latino pelicula full hd, Fargo (2015) Segunda Temporada AMZN WEB-DL 1080p Latino mega latino, Fargo (2015) Segunda Temporada AMZN WEB-DL 1080p Latino 4k latino, Fargo (2015) Segunda Temporada AMZN WEB-DL 1080p Latino pelicula completa, Fargo (2015) Segunda Temporada AMZN WEB-DL 1080p Latino descargar gratis, descargar Fargo (2015) Segunda Temporada AMZN WEB-DL 1080p Latino pelicula latino, Fargo (2015) Segunda Temporada AMZN WEB-DL 1080p Latino 1 link mega, Fargo (2015) Segunda Temporada AMZN WEB-DL 1080p Latino 1 link google drive, Fargo (2015) Segunda Temporada AMZN WEB-DL 1080p Latino hd 1080p latino.
Comentarios 0