×

¿Problemas para descargar con Mozilla, EDGE? Deshabilita la opción "Abrir vinculos en una pestaña nueva" tal como lo muestra ésta imagen.

Fargo (2014) Primera Temporada AMZN WEB-DL 1080p Latino

88 vistas

Información de Fargo (2014) Primera Temporada AMZN WEB-DL 1080p Latino

Datos de la película

  • Calidad: 1080p
  • Audio: Español Latino AC3 5.1 WEB-DL - Ingles AC3 5.1 WEB-DL
  • Subtitulos: Español Latino SRT- FORZADOS SRT
  • Resolución: 1920x1080
  • Formato: MKV
  • Codec: H.264
  • Encoder: cinemaniahdd
  • Mediainfo: Clic para Mostrar Datos Ver
  • Fargo T01E01 AMZN WEB-DL 1080p Latino [CNMNHDD].mkv
    Format                      : Matroska
    Format version              : Version 4
    File size                   : 6.67 GiB
    Duration                    : 1 h 10 min
    Overall bit rate            : 13.5 Mb/s
    Movie name                  : Fargo S01E01 - The Crocodile's Dilemma [1080p] - CinemaniaHDD.Net
    Encoded date                : UTC 2024-04-09 02:44:27
    Writing application         : mkvmerge v56.1.0 ('My Friend') 64-bit
    Writing library             : libebml v1.4.2 + libmatroska v1.6.4

    Video
    ID                          : 1
    Format                      : AVC
    Format/Info                 : Advanced Video Codec
    Format profile              : High@L4
    Format settings             : CABAC / 4 Ref Frames
    Format settings, CABAC      : Yes
    Format settings, Reference  : 4 frames
    Codec ID                    : V_MPEG4/ISO/AVC
    Duration                    : 1 h 10 min
    Bit rate                    : 11.6 Mb/s
    Width                       : 1 920 pixels
    Height                      : 1 080 pixels
    Display aspect ratio        : 16:9
    Frame rate mode             : Constant
    Frame rate                  : 23.976 (24000/1001) FPS
    Color space                 : YUV
    Chroma subsampling          : 4:2:0
    Bit depth                   : 8 bits
    Scan type                   : Progressive
    Bits/(Pixel*Frame)          : 0.233
    Stream size                 : 5.72 GiB (86%)
    Title                       : CinemaniaHDD.Net
    Default                     : Yes
    Forced                      : No
    Color range                 : Limited
    Color primaries             : BT.709
    Transfer characteristics    : BT.709
    Matrix coefficients         : BT.709

    Audio #1
    ID                          : 2
    Format                      : AC-3
    Format/Info                 : Audio Coding 3
    Commercial name             : Dolby Digital
    Codec ID                    : A_AC3
    Duration                    : 1 h 10 min
    Bit rate mode               : Constant
    Bit rate                    : 640 kb/s
    Channel(s)                  : 6 channels
    Channel layout              : L R C LFE Ls Rs
    Sampling rate               : 48.0 kHz
    Frame rate                  : 31.250 FPS (1536 SPF)
    Compression mode            : Lossy
    Stream size                 : 323 MiB (5%)
    Title                       : Español Latino (AC3) [CinemaniaHDD]
    Language                    : Spanish
    Service kind                : Complete Main
    Default                     : Yes
    Forced                      : No

    Audio #2
    ID                          : 3
    Format                      : E-AC-3
    Format/Info                 : Enhanced AC-3
    Commercial name             : Dolby Digital Plus
    Codec ID                    : A_EAC3
    Duration                    : 1 h 10 min
    Bit rate mode               : Constant
    Bit rate                    : 640 kb/s
    Channel(s)                  : 6 channels
    Channel layout              : L R C LFE Ls Rs
    Sampling rate               : 48.0 kHz
    Frame rate                  : 31.250 FPS (1536 SPF)
    Compression mode            : Lossy
    Stream size                 : 323 MiB (5%)
    Title                       : Español Latino (E-AC3) [CinemaniaHDD]
    Language                    : Spanish
    Service kind                : Complete Main
    Default                     : No
    Forced                      : No

    Audio #3
    ID                          : 4
    Format                      : E-AC-3
    Format/Info                 : Enhanced AC-3
    Commercial name             : Dolby Digital Plus
    Codec ID                    : A_EAC3
    Duration                    : 1 h 10 min
    Bit rate mode               : Constant
    Bit rate                    : 640 kb/s
    Channel(s)                  : 6 channels
    Channel layout              : L R C LFE Ls Rs
    Sampling rate               : 48.0 kHz
    Frame rate                  : 31.250 FPS (1536 SPF)
    Compression mode            : Lossy
    Stream size                 : 323 MiB (5%)
    Title                       : Inglés (Original) [CinemaniaHDD]
    Language                    : English
    Service kind                : Complete Main
    Default                     : No
    Forced                      : No

    Text #1
    ID                          : 5
    Format                      : UTF-8
    Codec ID                    : S_TEXT/UTF8
    Codec ID/Info               : UTF-8 Plain Text
    Duration                    : 1 h 9 min
    Bit rate                    : 0 b/s
    Count of elements           : 15
    Stream size                 : 496 Bytes (0%)
    Title                       : Forzados [CinemaniaHDD]
    Language                    : Spanish
    Default                     : Yes
    Forced                      : Yes

    Text #2
    ID                          : 6
    Format                      : UTF-8
    Codec ID                    : S_TEXT/UTF8
    Codec ID/Info               : UTF-8 Plain Text
    Duration                    : 1 h 9 min
    Bit rate                    : 54 b/s
    Count of elements           : 918
    Stream size                 : 27.8 KiB (0%)
    Title                       : Español Latino [CinemaniaHDD]
    Language                    : Spanish
    Default                     : No
    Forced                      : No

    Text #3
    ID                          : 7
    Format                      : UTF-8
    Codec ID                    : S_TEXT/UTF8
    Codec ID/Info               : UTF-8 Plain Text
    Duration                    : 1 h 6 min
    Bit rate                    : 59 b/s
    Count of elements           : 1045
    Stream size                 : 29.2 KiB (0%)
    Title                       : Inglés [CinemaniaHDD]
    Language                    : English
    Default                     : No
    Forced                      : No

    Menu
    00:00:00.000                : FX Preview
    00:00:16.000                : Break
    00:00:17.000                : Opening Credits
    00:01:03.000                : Lorne drives down the road with someone locked in his trunk
    00:02:46.000                : Pearl talks about how well Chaz is doing
    00:05:25.000                : Lester goes to work and tries to make a sale
    00:07:24.000                : Lester runs into his old bully from high school
    00:10:32.000                : Lorne asks Lester about what happened and offers to do him a favor
    00:16:58.000                : The police investigate the abandoned car
    00:19:33.000                : Vern comes home and tells Ida about the man in the woods
    00:21:39.000                : Lorne goes to see Sam
    00:24:08.000                : The wives praise Chaz's new accomplishments
    00:26:12.000                : Chaz shows Lester something cool
    00:29:04.000                : Break
    00:29:05.000                : Lorne tells his boss he is taking a detour
    00:30:10.000                : Lorne goes after Sam
    00:30:59.000                : Vern gets called to the scene of the crime
    00:33:18.000                : Lorne checks into a motel
    00:35:52.000                : Break
    00:35:54.000                : Molly and Vern talk about the recent deaths
    00:37:57.000                : Bruce briefs Gina on the arrangements being made
    00:41:17.000                : Break
    00:41:19.000                : Lester sees Lorne on the way to work and hears the news about Sam
    00:42:46.000                : Lester goes to the motel to talk to Lorne about Sam
    00:45:01.000                : Ida decides on a color
    00:46:15.000                : Molly gets a lead on Lester
    00:47:29.000                : Lester tries to fix the washing machine and makes a bigger mess of things
    00:53:39.000                : Break
    00:53:42.000                : Lester finds himself in deep water
    00:59:31.000                : Break
    00:59:34.000                : Molly watches Vern's body get taken away and she brings the news to Ida
    01:01:11.000                : Gus makes a routine traffic stop
    01:05:36.000                : Lester wakes up and remembers what happened
    01:06:26.000                : Lou asks Molly if she wants to work at the restaurant
    01:07:50.000                : End Credits

     

  • Peso: 6.67 GiB Aprox ---- 50 GiB in 10 Chapters.

Sinopsis

Lorne Malvo es un hombre manipulador que conoce al vendedor de seguros Lester Nygaard y cambia su vida por siempre, convenciéndolo que lo ayude en la búsqueda de un asesino.

Ficha técnica

Video trailer de la película

Enlaces de descarga

Rip de Bluray

Descargar Fargo (2014) Primera Temporada AMZN WEB-DL 1080p Latino




Aportes de DPeliculasHDmega la pass es:dpeliculashdmega.org Aportes de CinemaniaHD la pass es:cinemaniahdd.com Aportes recientes:cinemaniahdd.net
Guardado en : Crimen , Drama , Series

Películas relacionadas

  • Red de venganza (2023) HD 1080p Latino

    Red de venganza (2023) HD 1080p Latino

    2023
    Red de venganza (2023) HD 1080p Latino

    1h 25m 2023

    Descargar Red de venganza (2023) HD 1080p Latino. Analiza los problemas que surgen entre una madre (Summer...

    Director: Amy Redford

    Género: Drama

    Actores: Summer Phoenix

  • Red de venganza (2023) REMUX 1080p Latino

    Red de venganza (2023) REMUX 1080p Latino

    2023
    Red de venganza (2023) REMUX 1080p Latino

    1h 25m 2023

    Descargar Red de venganza (2023) REMUX 1080p Latino. Analiza los problemas que surgen entre una madre...

    Director: Amy Redford

    Género: Drama

    Actores: Summer Phoenix

  • Recuerdos Mortales (2024) WEB-DL 1080p Latino

    Recuerdos Mortales (2024) WEB-DL 1080p Latino

    2024
    Recuerdos Mortales (2024) WEB-DL 1080p Latino

    1h 52m 2024

    Descargar Recuerdos Mortales (2024) WEB-DL 1080p Latino. Después de someterse a un tratamiento de vanguardia...

    Director: Adam Cooper

    Género: Crimen

    Actores: Tommy Flanagan

descargar Fargo (2014) Primera Temporada AMZN WEB-DL 1080p Latino 1080p 1080p gratis, Fargo (2014) Primera Temporada AMZN WEB-DL 1080p Latino 1080p mega 1 link, Fargo (2014) Primera Temporada AMZN WEB-DL 1080p Latino 1080p serie completa, descargar Fargo (2014) Primera Temporada AMZN WEB-DL 1080p Latino 1080p gratis en mega.

Fargo (2014) Primera Temporada AMZN WEB-DL 1080p Latino pelicula full hd, Fargo (2014) Primera Temporada AMZN WEB-DL 1080p Latino mega latino, Fargo (2014) Primera Temporada AMZN WEB-DL 1080p Latino 4k latino, Fargo (2014) Primera Temporada AMZN WEB-DL 1080p Latino pelicula completa, Fargo (2014) Primera Temporada AMZN WEB-DL 1080p Latino descargar gratis, descargar Fargo (2014) Primera Temporada AMZN WEB-DL 1080p Latino pelicula latino, Fargo (2014) Primera Temporada AMZN WEB-DL 1080p Latino 1 link mega, Fargo (2014) Primera Temporada AMZN WEB-DL 1080p Latino 1 link google drive, Fargo (2014) Primera Temporada AMZN WEB-DL 1080p Latino hd 1080p latino.
Comentarios 0