×

¿Problemas para descargar con Mozilla, EDGE? Deshabilita la opción "Abrir vinculos en una pestaña nueva" tal como lo muestra ésta imagen.

Spider-Man: Lejos de Casa (2019) REMUX 1080p Latino

3.488 vistas

Información de Spider-Man: Lejos de Casa (2019) REMUX 1080p Latino

Datos de la película

  • Calidad: Full 1080p
  • Audio: Español Latino AC3 5.1 BLURAY - DTS-HD Master 7.1 BLURAY
  • Subtitulos: Español Latino PGS - Ingles PGS
  • Resolución: 1920x1080p
  • Formato: MKV
  • Codec: H.264
  • Encoder: CinemaniaHD
  • Mediainfo: Clic para Mostrar Datos Ver
  • Spider-Man - Lejos de Casa (2019) REMUX 1080p Latino.mkv
    Format                      : Matroska
    Format version              : Version 4
    File size                   : 25.5 GiB
    Duration                    : 2 h 9 min
    Overall bit rate mode       : Variable
    Overall bit rate            : 28.2 Mb/s
    Movie name                  : Spider-Man - Lejos de Casa (2019) - CinemaniaHDD.Net
    Encoded date                : UTC 2019-09-19 05:26:58
    Writing application         : mkvmerge v35.0.0 ('All The Love In The World') 64-bit
    Writing library             : libebml v1.3.9 + libmatroska v1.5.2

    Video
    ID                          : 1
    Format                      : AVC
    Format/Info                 : Advanced Video Codec
    Format profile              : High@L4.1
    Format settings             : CABAC / 2 Ref Frames
    Format settings, CABAC      : Yes
    Format settings, ReFrames   : 2 frames
    Format settings, GOP        : M=1, N=10
    Codec ID                    : V_MPEG4/ISO/AVC
    Duration                    : 2 h 9 min
    Bit rate mode               : Variable
    Bit rate                    : 24.9 Mb/s
    Width                       : 1 920 pixels
    Height                      : 1 080 pixels
    Display aspect ratio        : 16:9
    Frame rate mode             : Constant
    Frame rate                  : 23.976 (24000/1001) FPS
    Color space                 : YUV
    Chroma subsampling          : 4:2:0
    Bit depth                   : 8 bits
    Scan type                   : Progressive
    Bits/(Pixel*Frame)          : 0.501
    Stream size                 : 22.5 GiB (88%)
    Title                       : CinemaniaHDD
    Default                     : No
    Forced                      : No

    Audio #1
    ID                          : 2
    Format                      : AC-3
    Format/Info                 : Audio Coding 3
    Commercial name             : Dolby Digital
    Codec ID                    : A_AC3
    Duration                    : 2 h 9 min
    Bit rate mode               : Constant
    Bit rate                    : 640 kb/s
    Channel(s)                  : 6 channels
    Channel layout              : L R C LFE Ls Rs
    Sampling rate               : 48.0 kHz
    Frame rate                  : 31.250 FPS (1536 SPF)
    Bit depth                   : 16 bits
    Compression mode            : Lossy
    Stream size                 : 592 MiB (2%)
    Title                       : Español latino [CinemaniaHDD]
    Language                    : Spanish
    Service kind                : Complete Main
    Default                     : Yes
    Forced                      : No

    Audio #2
    ID                          : 3
    Format                      : DTS XLL
    Format/Info                 : Digital Theater Systems
    Commercial name             : DTS-HD Master Audio
    Codec ID                    : A_DTS
    Duration                    : 2 h 9 min
    Bit rate mode               : Variable
    Bit rate                    : 2 594 kb/s
    Channel(s)                  : 8 channels
    Channel layout              : C L R LFE Lb Rb Lss Rss
    Sampling rate               : 48.0 kHz
    Frame rate                  : 93.750 FPS (512 SPF)
    Bit depth                   : 16 bits
    Compression mode            : Lossless
    Stream size                 : 2.34 GiB (9%)
    Title                       : Inglés [CinemaniaHDD]
    Language                    : English
    Default                     : No
    Forced                      : No

    Text #1
    ID                          : 4
    Format                      : UTF-8
    Codec ID                    : S_TEXT/UTF8
    Codec ID/Info               : UTF-8 Plain Text
    Duration                    : 2 h 8 min
    Bit rate                    : 0 b/s
    Count of elements           : 11
    Stream size                 : 329 Bytes (0%)
    Title                       : Forzados [CinemaniaHDD]
    Language                    : Spanish
    Default                     : Yes
    Forced                      : Yes

    Text #2
    ID                          : 5
    Format                      : PGS
    Muxing mode                 : zlib
    Codec ID                    : S_HDMV/PGS
    Codec ID/Info               : Picture based subtitle format used on BDs/HD-DVDs
    Duration                    : 2 h 8 min
    Bit rate                    : 36.5 kb/s
    Count of elements           : 3438
    Stream size                 : 33.6 MiB (0%)
    Title                       : Español latino [CinemaniaHDD]
    Language                    : Spanish
    Default                     : No
    Forced                      : No

    Text #3
    ID                          : 6
    Format                      : PGS
    Muxing mode                 : zlib
    Codec ID                    : S_HDMV/PGS
    Codec ID/Info               : Picture based subtitle format used on BDs/HD-DVDs
    Duration                    : 2 h 8 min
    Bit rate                    : 42.1 kb/s
    Count of elements           : 3858
    Stream size                 : 38.6 MiB (0%)
    Title                       : Inglés [CinemaniaHDD]
    Language                    : English
    Default                     : No
    Forced                      : No

    Menu
    00:00:00.000                : en:00:00:00.000
    00:09:35.033                : en:00:09:35.033
    00:16:06.716                : en:00:16:06.716
    00:25:18.475                : en:00:25:18.475
    00:35:26.499                : en:00:35:26.499
    00:41:57.014                : en:00:41:57.014
    00:49:50.029                : en:00:49:50.029
    00:57:09.509                : en:00:57:09.509
    01:04:50.637                : en:01:04:50.637
    01:15:57.219                : en:01:15:57.219
    01:22:49.089                : en:01:22:49.089
    01:29:25.193                : en:01:29:25.193
    01:36:43.256                : en:01:36:43.256
    01:44:47.364                : en:01:44:47.364
    01:52:17.397                : en:01:52:17.397
    01:57:45.433                : en:01:57:45.433

  • Peso: 25.5 GiB

Sinopsis

Descargar Spider-Man: Lejos de Casa (2019) REMUX 1080p Latino. Peter Parker decide irse junto a Michelle Jones, Ned y el resto de sus amigos a pasar unas vacaciones a Europa después de los eventos ocurridos en Vengadores: EndGame. Sin embargo, el plan de Parker por dejar de lado sus superpoderes durante unas semanas se ven truncados cuándo es reclutado por Nick Fury para unirse a Mysterio (un humano que proviene de la Tierra 833, una dimensión del Multiverso, que tuvo su primera aparición en Doctor Strange) para luchar contra los Elementales (cuatro entes inmortales que vienen de la misma dimensión y que dominan los cuatro elementos de la Naturaleza, el fuego, el agua, el aire y la tierra) . En ese momento, Parker vuelve a ponerse el traje de Spider-Man para cumplir con su labor.

Ficha técnica

Video trailer de la película

Enlaces de descarga

Rip de Bluray

Descargar Spider-Man: Lejos de Casa (2019) REMUX 1080p Latino




Aportes de DPeliculasHDmega la pass es:dpeliculashdmega.org Aportes de CinemaniaHD la pass es:cinemaniahdd.com
Guardado en : Acción , Aventura , Ciencia ficción , Remux

Películas relacionadas

descargar Spider-Man: Lejos de Casa (2019) REMUX 1080p Latino Full 1080p 1080p gratis, Spider-Man: Lejos de Casa (2019) REMUX 1080p Latino Full 1080p mega 1 link, Spider-Man: Lejos de Casa (2019) REMUX 1080p Latino Full 1080p pelicula completa, descargar Spider-Man: Lejos de Casa (2019) REMUX 1080p Latino Full 1080p gratis en mega.

Spider-Man: Lejos de Casa (2019) REMUX 1080p Latino pelicula full hd, Spider-Man: Lejos de Casa (2019) REMUX 1080p Latino mega latino, Spider-Man: Lejos de Casa (2019) REMUX 1080p Latino 4k latino, Spider-Man: Lejos de Casa (2019) REMUX 1080p Latino pelicula completa, Spider-Man: Lejos de Casa (2019) REMUX 1080p Latino descargar gratis, descargar Spider-Man: Lejos de Casa (2019) REMUX 1080p Latino pelicula latino, Spider-Man: Lejos de Casa (2019) REMUX 1080p Latino 1 link mega, Spider-Man: Lejos de Casa (2019) REMUX 1080p Latino 1 link google drive, Spider-Man: Lejos de Casa (2019) REMUX 1080p Latino hd 1080p latino.
Comentarios 1
  • Octavio Cesar posadas Martinez - 19 septiembre, 2019

    Gracias por le BDRemux de spider-man lejos de casa, saludos