×

¿Problemas para descargar con Mozilla, EDGE? Deshabilita la opción "Abrir vinculos en una pestaña nueva" tal como lo muestra ésta imagen.

Fantasy Island (2021) Primera Temporada AMZN WEB-DL 1080p Latino

4.648 vistas

Información de Fantasy Island (2021) Primera Temporada AMZN WEB-DL 1080p Latino

Datos de la película

  • Calidad: 1080p
  • Audio: Español Latino AC3 2.0 WEB-DL - Ingles AC3 5.1 WEB-DL
  • Subtitulos: Español Latino SRT - Ingles SRT
  • Resolución: 1920x960
  • Formato: MKV
  • Codec: H.264
  • Encoder: cinemaniahdd
  • Mediainfo: Clic para Mostrar Datos Ver
  • Fantasy Island T01E01 AMZN WEB-DL 1080p Latino [CNMNHDD].mkv
    Format                      : Matroska
    Format version              : Version 4
    File size                   : 3.18 GiB
    Duration                    : 42 min 57 s
    Overall bit rate            : 10.6 Mb/s
    Movie name                  : Fantasy Island S01E01 - Hungry Christine. Mel Loves Ruby [1080p] - CinemaniaHDD.Net
    Encoded date                : UTC 2022-07-06 19:16:41
    Writing application         : mkvmerge v56.1.0 ('My Friend') 64-bit
    Writing library             : libebml v1.4.2 + libmatroska v1.6.4

    Video
    ID                          : 1
    Format                      : AVC
    Format/Info                 : Advanced Video Codec
    Format profile              : High@L4
    Format settings             : CABAC / 4 Ref Frames
    Format settings, CABAC      : Yes
    Format settings, Reference  : 4 frames
    Codec ID                    : V_MPEG4/ISO/AVC
    Duration                    : 42 min 57 s
    Bit rate mode               : Constant
    Bit rate                    : 10 000 kb/s
    Width                       : 1 920 pixels
    Height                      : 960 pixels
    Display aspect ratio        : 2.000
    Frame rate mode             : Constant
    Frame rate                  : 23.976 (24000/1001) FPS
    Color space                 : YUV
    Chroma subsampling          : 4:2:0
    Bit depth                   : 8 bits
    Scan type                   : Progressive
    Bits/(Pixel*Frame)          : 0.226
    Stream size                 : 2.88 GiB (90%)
    Title                       : CinemaniaHDD
    Language                    : English
    Default                     : Yes
    Forced                      : No
    Color range                 : Limited
    Color primaries             : BT.709
    Transfer characteristics    : BT.709
    Matrix coefficients         : BT.709

    Audio #1
    ID                          : 2
    Format                      : AC-3
    Format/Info                 : Audio Coding 3
    Commercial name             : Dolby Digital
    Codec ID                    : A_AC3
    Duration                    : 42 min 57 s
    Bit rate mode               : Constant
    Bit rate                    : 384 kb/s
    Channel(s)                  : 2 channels
    Channel layout              : L R
    Sampling rate               : 48.0 kHz
    Frame rate                  : 31.250 FPS (1536 SPF)
    Compression mode            : Lossy
    Stream size                 : 118 MiB (4%)
    Title                       : Español latino [CinemaniaHDD]
    Language                    : Spanish
    Service kind                : Complete Main
    Default                     : Yes
    Forced                      : No

    Audio #2
    ID                          : 3
    Format                      : E-AC-3
    Format/Info                 : Enhanced AC-3
    Commercial name             : Dolby Digital Plus
    Codec ID                    : A_EAC3
    Duration                    : 42 min 57 s
    Bit rate mode               : Constant
    Bit rate                    : 640 kb/s
    Channel(s)                  : 6 channels
    Channel layout              : L R C LFE Ls Rs
    Sampling rate               : 48.0 kHz
    Frame rate                  : 31.250 FPS (1536 SPF)
    Compression mode            : Lossy
    Stream size                 : 197 MiB (6%)
    Title                       : Inglés [CinemaniaHDD]
    Language                    : English
    Service kind                : Complete Main
    Default                     : No
    Forced                      : No

    Text #1
    ID                          : 4
    Format                      : UTF-8
    Codec ID                    : S_TEXT/UTF8
    Codec ID/Info               : UTF-8 Plain Text
    Duration                    : 41 min 58 s
    Bit rate                    : 57 b/s
    Count of elements           : 571
    Stream size                 : 17.7 KiB (0%)
    Default                     : No
    Forced                      : No

    Text #2
    ID                          : 5
    Format                      : UTF-8
    Codec ID                    : S_TEXT/UTF8
    Codec ID/Info               : UTF-8 Plain Text
    Duration                    : 42 min 13 s
    Bit rate                    : 65 b/s
    Count of elements           : 655
    Stream size                 : 20.2 KiB (0%)
    Title                       : Inglés [CinemaniaHDD]
    Language                    : English
    Default                     : No
    Forced                      : No

     

  • Peso: 3.18 GiB Aprox ---- 26 GiB in 10 Chapters.

Sinopsis

Esta versión contemporánea de la serie dramática clásica profundiza en las preguntas de «qué pasaría si» que nos mantienen despiertos por la noche. Cada episodio cuenta historias emocionantes y provocativas sobre personas que entran con un deseo, pero terminan renaciendo a sí mismas a través del realismo mágico de Fantasy Island.

Ficha técnica

Video trailer de la película

Enlaces de descarga

Rip de Bluray

Descargar Fantasy Island (2021) Primera Temporada AMZN WEB-DL 1080p Latino




Aportes de DPeliculasHDmega la pass es:dpeliculashdmega.org Aportes de CinemaniaHD la pass es:cinemaniahdd.com
Guardado en : Drama , Sci-Fi & Fantasy , Series

Películas relacionadas

descargar Fantasy Island (2021) Primera Temporada AMZN WEB-DL 1080p Latino 1080p 1080p gratis, Fantasy Island (2021) Primera Temporada AMZN WEB-DL 1080p Latino 1080p mega 1 link, Fantasy Island (2021) Primera Temporada AMZN WEB-DL 1080p Latino 1080p serie completa, descargar Fantasy Island (2021) Primera Temporada AMZN WEB-DL 1080p Latino 1080p gratis en mega.

Fantasy Island (2021) Primera Temporada AMZN WEB-DL 1080p Latino pelicula full hd, Fantasy Island (2021) Primera Temporada AMZN WEB-DL 1080p Latino mega latino, Fantasy Island (2021) Primera Temporada AMZN WEB-DL 1080p Latino 4k latino, Fantasy Island (2021) Primera Temporada AMZN WEB-DL 1080p Latino pelicula completa, Fantasy Island (2021) Primera Temporada AMZN WEB-DL 1080p Latino descargar gratis, descargar Fantasy Island (2021) Primera Temporada AMZN WEB-DL 1080p Latino pelicula latino, Fantasy Island (2021) Primera Temporada AMZN WEB-DL 1080p Latino 1 link mega, Fantasy Island (2021) Primera Temporada AMZN WEB-DL 1080p Latino 1 link google drive, Fantasy Island (2021) Primera Temporada AMZN WEB-DL 1080p Latino hd 1080p latino.
Comentarios 0