×

¿Problemas para descargar con Mozilla, EDGE? Deshabilita la opción "Abrir vinculos en una pestaña nueva" tal como lo muestra ésta imagen.

La Isla de la Fantasia (2020) Full HD 1080p [Unrated] latino

579 vistas

Información de La Isla de la Fantasia (2020) Full HD 1080p [Unrated] latino

Datos de la película

  • Calidad: Full 1080p
  • Audio: Español Latino AC3 5.1 BLURAY - Ingles DTS 5.1 BLURAY
  • Subtitulos: Español Latino PGS - Ingles PGS
  • Resolución: 1920x1080p
  • Formato: MKV
  • Codec: H.264
  • Encoder: CinefiloCool
  • Mediainfo: Clic para Mostrar Datos Ver
  • La Isla De La Fantasia (2020) Full HD 1080p Latino-CMHDD.mkv
    Format                      : Matroska
    Format version              : Version 4
    File size                   : 5.54 GiB
    Duration                    : 1 h 49 min
    Overall bit rate            : 7 251 kb/s
    Movie name                  : Fantasy Island (2020) CinemaniaHDD.Net
    Encoded date                : UTC 2020-05-04 19:44:52
    Writing application         : mkvmerge v42.0.0 ('Overtime') 64-bit
    Writing library             : libebml v1.3.10 + libmatroska v1.5.2
    Attachments                 : CINEMANIAHD.png

    Video
    ID                          : 1
    Format                      : AVC
    Format/Info                 : Advanced Video Codec
    Format profile              : High@L4.1
    Format settings             : CABAC / 4 Ref Frames
    Format settings, CABAC      : Yes
    Format settings, ReFrames   : 4 frames
    Codec ID                    : V_MPEG4/ISO/AVC
    Duration                    : 1 h 49 min
    Bit rate                    : 5 063 kb/s
    Width                       : 1 920 pixels
    Height                      : 1 080 pixels
    Display aspect ratio        : 16:9
    Frame rate mode             : Constant
    Frame rate                  : 23.976 (24000/1001) FPS
    Color space                 : YUV
    Chroma subsampling          : 4:2:0
    Bit depth                   : 8 bits
    Scan type                   : Progressive
    Bits/(Pixel*Frame)          : 0.102
    Stream size                 : 3.87 GiB (70%)
    Title                       : Full HD1080p [CinemaniaHDD]
    Writing library             : x264 core 157 r2935 545de2f
    Encoding settings           : cabac=1 / ref=4 / deblock=1:0:0 / analyse=0x3:0x133 / me=tesa / subme=11 / psy=1 / psy_rd=1.00:0.00 / mixed_ref=1 / me_range=24 / chroma_me=1 / trellis=2 / 8x8dct=1 / cqm=0 / deadzone=21,11 / fast_pskip=0 / chroma_qp_offset=-2 / threads=34 / lookahead_threads=8 / sliced_threads=0 / nr=0 / decimate=1 / interlaced=0 / bluray_compat=0 / constrained_intra=0 / bframes=16 / b_pyramid=2 / b_adapt=2 / b_bias=0 / direct=3 / weightb=1 / open_gop=0 / weightp=2 / keyint=240 / keyint_min=24 / scenecut=40 / intra_refresh=0 / rc_lookahead=60 / rc=crf / mbtree=1 / crf=19.0 / qcomp=0.60 / qpmin=0 / qpmax=69 / qpstep=4 / vbv_maxrate=62500 / vbv_bufsize=78125 / crf_max=0.0 / nal_hrd=none / filler=0 / ip_ratio=1.40 / aq=1:1.00
    Default                     : Yes
    Forced                      : Yes
    Color range                 : Limited
    Color primaries             : BT.709
    Transfer characteristics    : BT.709
    Matrix coefficients         : BT.709

    Audio #1
    ID                          : 2
    Format                      : AC-3
    Format/Info                 : Audio Coding 3
    Commercial name             : Dolby Digital
    Codec ID                    : A_AC3
    Duration                    : 1 h 49 min
    Bit rate mode               : Constant
    Bit rate                    : 640 kb/s
    Channel(s)                  : 6 channels
    Channel layout              : L R C LFE Ls Rs
    Sampling rate               : 48.0 kHz
    Frame rate                  : 31.250 FPS (1536 SPF)
    Bit depth                   : 16 bits
    Compression mode            : Lossy
    Stream size                 : 501 MiB (9%)
    Title                       : Español Latino [CinemaniaHDD]
    Language                    : Spanish
    Service kind                : Complete Main
    Default                     : Yes
    Forced                      : Yes

    Audio #2
    ID                          : 3
    Format                      : DTS
    Format/Info                 : Digital Theater Systems
    Codec ID                    : A_DTS
    Duration                    : 1 h 49 min
    Bit rate mode               : Constant
    Bit rate                    : 1 509 kb/s
    Channel(s)                  : 6 channels
    Channel layout              : C L R Ls Rs LFE
    Sampling rate               : 48.0 kHz
    Frame rate                  : 93.750 FPS (512 SPF)
    Bit depth                   : 24 bits
    Compression mode            : Lossy
    Stream size                 : 1.15 GiB (21%)
    Title                       : Ingles [CinemaniaHDD]
    Language                    : English
    Default                     : No
    Forced                      : No

    Text #1
    ID                          : 4
    Format                      : PGS
    Muxing mode                 : zlib
    Codec ID                    : S_HDMV/PGS
    Codec ID/Info               : Picture based subtitle format used on BDs/HD-DVDs
    Duration                    : 1 h 48 min
    Bit rate                    : 33.8 kb/s
    Count of elements           : 2820
    Stream size                 : 26.2 MiB (0%)
    Title                       : Español-PGS [CinemaniaHDD]
    Language                    : Spanish
    Default                     : No
    Forced                      : No

    Text #2
    ID                          : 5
    Format                      : PGS
    Muxing mode                 : zlib
    Codec ID                    : S_HDMV/PGS
    Codec ID/Info               : Picture based subtitle format used on BDs/HD-DVDs
    Duration                    : 1 h 42 min
    Bit rate                    : 37.7 kb/s
    Count of elements           : 2800
    Stream size                 : 27.7 MiB (0%)
    Title                       : Ingles-PGS [CinemaniaHDD]
    Language                    : English
    Default                     : No
    Forced                      : No

    Text #3
    ID                          : 6
    Format                      : UTF-8
    Codec ID                    : S_TEXT/UTF8
    Codec ID/Info               : UTF-8 Plain Text
    Duration                    : 39 min 0 s
    Bit rate                    : 0 b/s
    Count of elements           : 5
    Stream size                 : 108 Bytes (0%)
    Title                       : Forzados-SRT [CinemaniaHDD]
    Language                    : Spanish
    Default                     : Yes
    Forced                      : No

    Text #4
    ID                          : 7
    Format                      : UTF-8
    Codec ID                    : S_TEXT/UTF8
    Codec ID/Info               : UTF-8 Plain Text
    Duration                    : 1 h 44 min
    Bit rate                    : 68 b/s
    Count of elements           : 1523
    Stream size                 : 51.9 KiB (0%)
    Title                       : Español-SRT [CinemaniaHDD]
    Language                    : Spanish
    Default                     : No
    Forced                      : No

    Menu
    00:00:00.000                : :Chapter 1
    00:08:47.110                : :Chapter 2
    00:13:44.824                : :Chapter 3
    00:18:47.501                : :Chapter 4
    00:25:42.332                : :Chapter 5
    00:32:38.706                : :Chapter 6
    00:39:34.956                : :Chapter 7
    00:45:24.722                : :Chapter 8
    00:51:02.142                : :Chapter 9
    00:55:38.335                : :Chapter 10
    01:01:34.148                : :Chapter 11
    01:09:40.092                : :Chapter 12
    01:15:21.558                : :Chapter 13
    01:23:03.019                : :Chapter 14
    01:29:11.638                : :Chapter 15
    01:40:03.831                : :Chapter 16

  • Peso: 5.54 GiB

Sinopsis

Descargar La Isla de la Fantasia (2020) Full HD 1080p [Unrated] latino. El enigmático Sr. Roarke hace realidad los sueños de los afortunados huéspedes que acuden a su lujoso y remoto resort tropical. Sin embargo, sus fantasías se convertirán en pesadillas, y los invitados deberán resolver el misterio que oculta la isla para poder escapar con vida. Adaptación en clave de terror del famoso programa de televisión de los años 70 ambientado en un resort ubicado en una isla mágica.

Ficha técnica

Video trailer de la película

Enlaces de descarga

Rip de Bluray

Descargar La Isla de la Fantasia (2020) Full HD 1080p [Unrated] latino




Aportes de DPeliculasHDmega la pass es:dpeliculashdmega.org Aportes de CinemaniaHD la pass es:cinemaniahdd.com

Películas relacionadas

descargar La Isla de la Fantasia (2020) Full HD 1080p [Unrated] latino Full 1080p 1080p gratis, La Isla de la Fantasia (2020) Full HD 1080p [Unrated] latino Full 1080p mega 1 link, La Isla de la Fantasia (2020) Full HD 1080p [Unrated] latino Full 1080p pelicula completa, descargar La Isla de la Fantasia (2020) Full HD 1080p [Unrated] latino Full 1080p gratis en mega.

La Isla de la Fantasia (2020) Full HD 1080p [Unrated] latino pelicula full hd, La Isla de la Fantasia (2020) Full HD 1080p [Unrated] latino mega latino, La Isla de la Fantasia (2020) Full HD 1080p [Unrated] latino 4k latino, La Isla de la Fantasia (2020) Full HD 1080p [Unrated] latino pelicula completa, La Isla de la Fantasia (2020) Full HD 1080p [Unrated] latino descargar gratis, descargar La Isla de la Fantasia (2020) Full HD 1080p [Unrated] latino pelicula latino, La Isla de la Fantasia (2020) Full HD 1080p [Unrated] latino 1 link mega, La Isla de la Fantasia (2020) Full HD 1080p [Unrated] latino 1 link google drive, La Isla de la Fantasia (2020) Full HD 1080p [Unrated] latino hd 1080p latino.
Comentarios 0