×

¿Problemas para descargar con Mozilla, EDGE? Deshabilita la opción "Abrir vinculos en una pestaña nueva" tal como lo muestra ésta imagen.

Fantastic Beasts: The Secrets of Dumbledore (2022) HMAX 4K WEB-DL 2160p Latino

1.846 vistas

Información de Fantastic Beasts: The Secrets of Dumbledore (2022) HMAX 4K WEB-DL 2160p Latino

Datos de la película

  • Calidad: 4K HDR
  • Audio: Español Latino AC3 5.1 WEB-DL - Ingles AC3 5.1 WEB-DL
  • Subtitulos: Español Latino SRT- FORZADOS SRT
  • Resolución: 3840x2160
  • Formato: MKV
  • Codec: HEVC
  • Encoder: cinemaniahdd
  • Mediainfo: Clic para Mostrar Datos Ver
  • Fantastic Beasts, The Secrets of Dumbledore (2022) 4K-HDR WEB-DL 2160p Latino [CNMNHDD].mkv
    Format                      : Matroska
    Format version              : Version 4
    File size                   : 17.9 GiB
    Duration                    : 2 h 22 min
    Overall bit rate            : 18.0 Mb/s
    Movie name                  : Fantastic Beasts, The Secrets of Dumbledore (2022) 4K - CinemaniaHDD.Net
    Encoded date                : UTC 2022-05-30 11:32:56
    Writing application         : mkvmerge v56.1.0 ('My Friend') 64-bit
    Writing library             : libebml v1.4.2 + libmatroska v1.6.4

    Video
    ID                          : 1
    Format                      : HEVC
    Format/Info                 : High Efficiency Video Coding
    Format profile              : Main 10@L5@Main
    HDR format                  : SMPTE ST 2086, HDR10 compatible
    Codec ID                    : V_MPEGH/ISO/HEVC
    Duration                    : 2 h 22 min
    Bit rate                    : 17.2 Mb/s
    Width                       : 3 840 pixels
    Height                      : 2 160 pixels
    Display aspect ratio        : 16:9
    Frame rate mode             : Constant
    Frame rate                  : 23.976 (24000/1001) FPS
    Color space                 : YUV
    Chroma subsampling          : 4:2:0
    Bit depth                   : 10 bits
    Bits/(Pixel*Frame)          : 0.087
    Stream size                 : 17.2 GiB (96%)
    Title                       : CinemaniaHDD
    Default                     : Yes
    Forced                      : No
    Color range                 : Limited
    Color primaries             : BT.2020
    Transfer characteristics    : PQ
    Matrix coefficients         : BT.2020 non-constant
    Mastering display color pri : Display P3
    Mastering display luminance : min: 0.0001 cd/m2, max: 1000 cd/m2
    Maximum Content Light Level : 500 cd/m2
    Maximum Frame-Average Light : 54 cd/m2

    Audio #1
    ID                          : 2
    Format                      : AC-3
    Format/Info                 : Audio Coding 3
    Commercial name             : Dolby Digital
    Codec ID                    : A_AC3
    Duration                    : 2 h 22 min
    Bit rate mode               : Constant
    Bit rate                    : 384 kb/s
    Channel(s)                  : 6 channels
    Channel layout              : L R C LFE Ls Rs
    Sampling rate               : 48.0 kHz
    Frame rate                  : 31.250 FPS (1536 SPF)
    Compression mode            : Lossy
    Stream size                 : 392 MiB (2%)
    Title                       : Español latino [CinemaniaHDD]
    Language                    : Spanish
    Service kind                : Complete Main
    Default                     : Yes
    Forced                      : No

    Audio #2
    ID                          : 3
    Format                      : AC-3
    Format/Info                 : Audio Coding 3
    Commercial name             : Dolby Digital
    Codec ID                    : A_AC3
    Duration                    : 2 h 22 min
    Bit rate mode               : Constant
    Bit rate                    : 384 kb/s
    Channel(s)                  : 6 channels
    Channel layout              : L R C LFE Ls Rs
    Sampling rate               : 48.0 kHz
    Frame rate                  : 31.250 FPS (1536 SPF)
    Compression mode            : Lossy
    Stream size                 : 392 MiB (2%)
    Title                       : Inglés [CinemaniaHDD]
    Language                    : English
    Service kind                : Complete Main
    Default                     : No
    Forced                      : No

    Text #1
    ID                          : 4
    Format                      : UTF-8
    Codec ID                    : S_TEXT/UTF8
    Codec ID/Info               : UTF-8 Plain Text
    Duration                    : 1 h 37 min
    Bit rate                    : 0 b/s
    Count of elements           : 15
    Stream size                 : 390 Bytes (0%)
    Title                       : Forzados [CinemaniaHDD]
    Language                    : Spanish
    Default                     : Yes
    Forced                      : Yes

    Text #2
    ID                          : 5
    Format                      : UTF-8
    Codec ID                    : S_TEXT/UTF8
    Codec ID/Info               : UTF-8 Plain Text
    Duration                    : 2 h 21 min
    Bit rate                    : 32 b/s
    Count of elements           : 1222
    Stream size                 : 33.9 KiB (0%)
    Title                       : Español latino [CinemaniaHDD]
    Language                    : Spanish
    Default                     : No
    Forced                      : No

     

  • Peso: 17.9 GiB

Sinopsis

El profesor Albus Dumbledore sabe que el poderoso mago oscuro Gellert Grindelwald está haciendo planes para apoderarse del mundo mágico. Incapaz de detenerlo él solo, confía en el Magizoólogo Newt Scamander para dirigir un intrépido equipo de magos, brujas y un valiente panadero Muggle en una misión peligrosa, donde se encuentran con antiguos y nuevos animales y se enfrentan a una legión cada vez más numerosa de seguidores de Grindelwald.

Ficha técnica

Video trailer de la película

Enlaces de descarga

Rip de Bluray

Descargar Fantastic Beasts: The Secrets of Dumbledore (2022) HMAX 4K WEB-DL 2160p Latino




Aportes de DPeliculasHDmega la pass es:dpeliculashdmega.org Aportes de CinemaniaHD la pass es:cinemaniahdd.com
Guardado en : 4K HDR , 4K UHD , Acción , Aventura , Fantasía

Películas relacionadas

  • Scrooge: Cuento De Navidad (2022) NF WEB-DL 1080p Latino

    Scrooge: Cuento De Navidad (2022) NF WEB-DL 1080p Latino

    2022
    Scrooge: Cuento De Navidad (2022) NF WEB-DL 1080p Latino

    1h 37m 2022

    Descargar Scrooge Cuento De Navidad (2022) NF WEB-DL 1080p Latino. En la víspera de Navidad, el egoísta...

    Director: Stephen Donnelly

    Género: Animación

    Actores: Trevor Dion Nicholas

  • La Guerra Del Futuro (2022) NF WEB-DL 1080p Latino

    La Guerra Del Futuro (2022) NF WEB-DL 1080p Latino

    2022
    La Guerra Del Futuro (2022) NF WEB-DL 1080p Latino

    1h 41m 2022

    Descargar La Guerra Del Futuro (2022) NF WEB-DL 1080p Latino. Tras la caída de un meteorito que alberga...

    Director: Ng Yuen-fai

    Género: Acción

    Actores: Tse Kwan-Ho

  • Super… ¿quién? (2021) HD 1080p Latino

    Super… ¿quién? (2021) HD 1080p Latino

    2022
    Super… ¿quién? (2021) HD 1080p Latino

    1h 22m 2022

    Descargar Super... ¿quién? (2021) HD 1080p Latino. Cedric (Philippe Lacheau) intenta ganarse la vida...

    Director: Philippe Lacheau

    Género: Acción

    Actores: Yves Yan

  • Super… ¿quién? (2021) REMUX 1080p Latino

    Super… ¿quién? (2021) REMUX 1080p Latino

    2022
    Super… ¿quién? (2021) REMUX 1080p Latino

    1h 22m 2022

    Descargar Super... ¿quién? (2021) REMUX 1080p Latino. Cedric (Philippe Lacheau) intenta ganarse la...

    Director: Philippe Lacheau

    Género: Acción

    Actores: Yves Yan

descargar Fantastic Beasts: The Secrets of Dumbledore (2022) HMAX 4K WEB-DL 2160p Latino 4K HDR 1080p gratis, Fantastic Beasts: The Secrets of Dumbledore (2022) HMAX 4K WEB-DL 2160p Latino 4K HDR mega 1 link, Fantastic Beasts: The Secrets of Dumbledore (2022) HMAX 4K WEB-DL 2160p Latino 4K HDR pelicula completa, descargar Fantastic Beasts: The Secrets of Dumbledore (2022) HMAX 4K WEB-DL 2160p Latino 4K HDR gratis en mega.

Fantastic Beasts: The Secrets of Dumbledore (2022) HMAX 4K WEB-DL 2160p Latino pelicula full hd, Fantastic Beasts: The Secrets of Dumbledore (2022) HMAX 4K WEB-DL 2160p Latino mega latino, Fantastic Beasts: The Secrets of Dumbledore (2022) HMAX 4K WEB-DL 2160p Latino 4k latino, Fantastic Beasts: The Secrets of Dumbledore (2022) HMAX 4K WEB-DL 2160p Latino pelicula completa, Fantastic Beasts: The Secrets of Dumbledore (2022) HMAX 4K WEB-DL 2160p Latino descargar gratis, descargar Fantastic Beasts: The Secrets of Dumbledore (2022) HMAX 4K WEB-DL 2160p Latino pelicula latino, Fantastic Beasts: The Secrets of Dumbledore (2022) HMAX 4K WEB-DL 2160p Latino 1 link mega, Fantastic Beasts: The Secrets of Dumbledore (2022) HMAX 4K WEB-DL 2160p Latino 1 link google drive, Fantastic Beasts: The Secrets of Dumbledore (2022) HMAX 4K WEB-DL 2160p Latino hd 1080p latino.
Comentarios 0