×

¿Problemas para descargar con Mozilla, EDGE? Deshabilita la opción "Abrir vinculos en una pestaña nueva" tal como lo muestra ésta imagen.

Fantastic Beasts and Where to Find Them (2016) BDRip 4K HDR Latino – CMHDD

166 vistas

Información de Fantastic Beasts and Where to Find Them (2016) BDRip 4K HDR Latino – CMHDD

Datos de la película

  • Calidad: 4K HDR
  • Audio: Español Latino AC3 2.0
  • Subtitulos: Español Latino SRT
  • Resolución: 3840x1600p
  • Formato: MKV
  • Codec: H.264
  • Encoder: Dracarys
  • Mediainfo: Clic para Mostrar Datos Ver
  • Format                      : Matroska
    Format version              : Version 4
    File size                   : 16.8 GiB
    Duration                    : 2 h 12 min
    Overall bit rate            : 18.1 Mb/s
    Movie name                  : Fantastic Beasts and Where to Find Them (2016) BDRip 4K HDR Latino - CMHDD
    Encoded date                : UTC 2021-07-04 23:32:21
    Writing application         : mkvmerge v56.1.0 ('My Friend') 64-bit
    Writing library             : libebml v1.4.2 + libmatroska v1.6.4

    Video
    ID                          : 1
    Format                      : HEVC
    Format/Info                 : High Efficiency Video Coding
    Format profile              : Main 10@L5.1@High
    HDR format                  : SMPTE ST 2086, HDR10 compatible
    Codec ID                    : V_MPEGH/ISO/HEVC
    Duration                    : 2 h 12 min
    Bit rate                    : 16.2 Mb/s
    Width                       : 3 840 pixels
    Height                      : 1 600 pixels
    Display aspect ratio        : 2.40:1
    Frame rate mode             : Constant
    Frame rate                  : 23.976 (24000/1001) FPS
    Color space                 : YUV
    Chroma subsampling          : 4:2:0 (Type 2)
    Bit depth                   : 10 bits
    Bits/(Pixel*Frame)          : 0.110
    Stream size                 : 15.0 GiB (89%)
    Writing library             : x265 2.9+35-bad4e598cac7:[Windows][GCC 6.3.0][64 bit] 10bit
    Encoding settings           : cpuid=1111039 / frame-threads=4 / numa-pools=25 / wpp / no-pmode / pme / no-psnr / no-ssim / log-level=2 / input-csp=1 / input-res=3840x1600 / interlace=0 / total-frames=191145 / level-idc=51 / high-tier=1 / uhd-bd=0 / ref=4 / no-allow-non-conformance / repeat-headers / annexb / aud / no-hrd / info / hash=0 / no-temporal-layers / no-open-gop / min-keyint=23 / keyint=250 / gop-lookahead=0 / bframes=9 / b-adapt=2 / b-pyramid / bframe-bias=0 / rc-lookahead=72 / lookahead-slices=4 / scenecut=40 / radl=0 / no-splice / no-intra-refresh / ctu=64 / min-cu-size=8 / no-rect / no-amp / max-tu-size=32 / tu-inter-depth=1 / tu-intra-depth=1 / limit-tu=0 / rdoq-level=2 / dynamic-rd=0.00 / no-ssim-rd / signhide / no-tskip / nr-intra=0 / nr-inter=0 / no-constrained-intra / strong-intra-smoothing / max-merge=5 / limit-refs=3 / limit-modes / me=3 / subme=7 / merange=57 / temporal-mvp / weightp / weightb / no-analyze-src-pics / deblock=0:0 / no-sao / no-sao-non-deblock / rd=4 / no-early-skip / no-rskip / no-fast-intra / no-tskip-fast / no-cu-lossless / no-b-intra / no-splitrd-skip / rdpenalty=0 / psy-rd=1.35 / psy-rdoq=1.47 / no-rd-refine / no-lossless / cbqpoffs=0 / crqpoffs=0 / rc=crf / crf=16.1 / qcomp=0.72 / qpstep=4 / stats-write=0 / stats-read=0 / vbv-maxrate=160000 / vbv-bufsize=160000 / vbv-init=0.9 / crf-max=0.0 / crf-min=0.0 / ipratio=1.39 / pbratio=1.27 / aq-mode=1 / aq-strength=0.77 / cutree / zone-count=4 / zones: / start-frame=0 / end-frame=2509 / bitrate-factor=1.250000 / zones: / start-frame=109640 / end-frame=128838 / bitrate-factor=1.150000 / zones: / start-frame=133638 / end-frame=149273 / bitrate-factor=1.150000 / zones: / start-frame=178668 / end-frame=191144 / bitrate-factor=0.400000 / no-strict-cbr / qg-size=32 / no-rc-grain / qpmax=69 / qpmin=0 / no-const-vbv / sar=1 / overscan=0 / videoformat=5 / range=0 / colorprim=9 / transfer=16 / colormatrix=9 / chromaloc=1 / chromaloc-top=2 / chromaloc-bottom=2 / display-window=0 / master-display=G(13250,34500)B(7500,3000)R(34000,16000)WP(15635,16450)L(40000000,50) / max-cll=3173,484 / min-luma=0 / max-luma=1023 / log2-max-poc-lsb=8 / vui-timing-info / vui-hrd-info / slices=1 / no-opt-qp-pps / no-opt-ref-list-length-pps / no-multi-pass-opt-rps / scenecut-bias=0.05 / no-opt-cu-delta-qp / no-aq-motion / hdr / hdr-opt / no-dhdr10-opt / no-idr-recovery-sei / analysis-reuse-level=5 / scale-factor=0 / refine-intra=0 / refine-inter=0 / refine-mv=0 / refine-ctu-distortion=0 / no-limit-sao / ctu-info=0 / no-lowpass-dct / refine-analysis-type=0 / copy-pic=1 / max-ausize-factor=1.0 / no-dynamic-refine / no-single-sei / no-hevc-aq / qp-adaptation-range=1.00
    Default                     : Yes
    Forced                      : No
    Color range                 : Limited
    Color primaries             : BT.2020
    Transfer characteristics    : PQ
    Matrix coefficients         : BT.2020 non-constant
    Mastering display color pri : Display P3
    Mastering display luminance : min: 0.0050 cd/m2, max: 4000 cd/m2
    Maximum Content Light Level : 3173 cd/m2
    Maximum Frame-Average Light : 484 cd/m2

    Audio #1
    ID                          : 2
    Format                      : E-AC-3
    Format/Info                 : Enhanced AC-3
    Commercial name             : Dolby Digital Plus
    Codec ID                    : A_EAC3
    Duration                    : 2 h 12 min
    Bit rate mode               : Constant
    Bit rate                    : 640 kb/s
    Channel(s)                  : 6 channels
    Channel layout              : L R C LFE Ls Rs
    Sampling rate               : 48.0 kHz
    Frame rate                  : 31.250 FPS (1536 SPF)
    Compression mode            : Lossy
    Delay relative to video     : 2 s 0 ms
    Stream size                 : 608 MiB (4%)
    Language                    : Spanish
    Service kind                : Complete Main
    Default                     : Yes
    Forced                      : No

    Audio #2
    ID                          : 3
    Format                      : AC-3
    Format/Info                 : Audio Coding 3
    Commercial name             : Dolby Digital
    Codec ID                    : A_AC3
    Duration                    : 2 h 12 min
    Bit rate mode               : Constant
    Bit rate                    : 640 kb/s
    Channel(s)                  : 6 channels
    Channel layout              : L R C LFE Ls Rs
    Sampling rate               : 48.0 kHz
    Frame rate                  : 31.250 FPS (1536 SPF)
    Compression mode            : Lossy
    Delay relative to video     : 2 s 0 ms
    Stream size                 : 608 MiB (4%)
    Language                    : Spanish
    Service kind                : Complete Main
    Default                     : No
    Forced                      : No

    Audio #3
    ID                          : 4
    Format                      : AC-3
    Format/Info                 : Audio Coding 3
    Commercial name             : Dolby Digital
    Codec ID                    : A_AC3
    Duration                    : 2 h 12 min
    Bit rate mode               : Constant
    Bit rate                    : 640 kb/s
    Channel(s)                  : 6 channels
    Channel layout              : L R C LFE Ls Rs
    Sampling rate               : 48.0 kHz
    Frame rate                  : 31.250 FPS (1536 SPF)
    Compression mode            : Lossy
    Stream size                 : 608 MiB (4%)
    Language                    : English
    Service kind                : Complete Main
    Default                     : No
    Forced                      : No

    Text #1
    ID                          : 5
    Format                      : UTF-8
    Codec ID                    : S_TEXT/UTF8
    Codec ID/Info               : UTF-8 Plain Text
    Duration                    : 2 h 2 min
    Bit rate                    : 39 b/s
    Count of elements           : 1314
    Stream size                 : 35.3 KiB (0%)
    Language                    : Spanish
    Default                     : No
    Forced                      : No

    Text #2
    ID                          : 6
    Format                      : UTF-8
    Codec ID                    : S_TEXT/UTF8
    Codec ID/Info               : UTF-8 Plain Text
    Duration                    : 2 h 1 min
    Bit rate                    : 0 b/s
    Count of elements           : 23
    Stream size                 : 645 Bytes (0%)
    Language                    : Spanish
    Default                     : Yes
    Forced                      : No

    Menu
    00:00:00.000                : Chapter 01
    00:08:40.269                : Chapter 02 -00:08:40
    00:18:55.717                : Chapter 03 -00:18:55
    00:28:23.660                : Chapter 04 -00:28:23
    00:38:34.186                : Chapter 05 -00:38:34
    00:48:08.594                : Chapter 06 -00:48:08
    00:58:19.245                : Chapter 07 -00:58:19
    01:09:14.692                : Chapter 08 -01:09:14
    01:17:26.391                : Chapter 09 -01:17:26
    01:29:33.659                : Chapter 10 -01:29:33
    01:38:02.084                : Chapter 11 -01:38:02
    01:50:27.871                : Chapter 12 -01:50:27
    01:59:04.470                : Chapter 13 -01:59:04
    02:04:12.820                : Chapter 14 -02:04:12

  • Peso: 16.8 GiB

Sinopsis

Año 1926. Newt Scamander acaba de completar un viaje por todo el mundo para encontrar y documentar una extraordinaria selección de criaturas mágicas. Llegando a Nueva York para hacer una breve parada en su camino, donde podría haber llegado y salido sin incidentes…pero no para un Muggle llamado Jacob, un caso perdido de magia, y la fuga de algunas criaturas fantásticas de Newt, que podrían causar problemas el mundo mágico y en el mundo Muggle.

 

Latino: E-AC3 + AC3 5.1  –  Ingles: AC3 5.1

Ficha técnica

Video trailer de la película

Enlaces de descarga

Rip de Bluray

Descargar Fantastic Beasts and Where to Find Them (2016) BDRip 4K HDR Latino – CMHDD




Aportes de DPeliculasHDmega la pass es:dpeliculashdmega.org Aportes de CinemaniaHD la pass es:cinemaniahdd.com
Guardado en : Aventura , Fantasía

Películas relacionadas

descargar Fantastic Beasts and Where to Find Them (2016) BDRip 4K HDR Latino – CMHDD 4K HDR 1080p gratis, Fantastic Beasts and Where to Find Them (2016) BDRip 4K HDR Latino – CMHDD 4K HDR mega 1 link, Fantastic Beasts and Where to Find Them (2016) BDRip 4K HDR Latino – CMHDD 4K HDR pelicula completa, descargar Fantastic Beasts and Where to Find Them (2016) BDRip 4K HDR Latino – CMHDD 4K HDR gratis en mega.

Fantastic Beasts and Where to Find Them (2016) BDRip 4K HDR Latino – CMHDD pelicula full hd, Fantastic Beasts and Where to Find Them (2016) BDRip 4K HDR Latino – CMHDD mega latino, Fantastic Beasts and Where to Find Them (2016) BDRip 4K HDR Latino – CMHDD 4k latino, Fantastic Beasts and Where to Find Them (2016) BDRip 4K HDR Latino – CMHDD pelicula completa, Fantastic Beasts and Where to Find Them (2016) BDRip 4K HDR Latino – CMHDD descargar gratis, descargar Fantastic Beasts and Where to Find Them (2016) BDRip 4K HDR Latino – CMHDD pelicula latino, Fantastic Beasts and Where to Find Them (2016) BDRip 4K HDR Latino – CMHDD 1 link mega, Fantastic Beasts and Where to Find Them (2016) BDRip 4K HDR Latino – CMHDD 1 link google drive, Fantastic Beasts and Where to Find Them (2016) BDRip 4K HDR Latino – CMHDD hd 1080p latino.
Comentarios 0