×

¿Problemas para descargar con Mozilla, EDGE? Deshabilita la opción "Abrir vinculos en una pestaña nueva" tal como lo muestra ésta imagen.

Fantasía 2000 (1999) HD 1080p Latino – CMHDD

528 vistas

Información de Fantasía 2000 (1999) HD 1080p Latino – CMHDD

Datos de la película

  • Calidad: 1080p
  • Audio: Español Latino AC3 5.1 BLURAY - Ingles AC3 5.1 BLURAY
  • Subtitulos: Español Latino SRT
  • Resolución: 1920x1080p
  • Formato: MKV
  • Codec: H.264
  • Encoder: Dracarys
  • Mediainfo: Clic para Mostrar Datos Ver
  • Format                      : Matroska
    Format version              : Version 4
    File size                   : 2.47 GiB
    Duration                    : 1 h 14 min
    Overall bit rate            : 4 737 kb/s
    Movie name                  : Fantasía 2000 (1999) HD 1080p Latino - CMHDD
    Encoded date                : UTC 2020-08-08 02:10:13
    Writing application         : mkvmerge v46.0.0 ('No Deeper Escape') 64-bit
    Writing library             : libebml v1.3.10 + libmatroska v1.5.2

    Video
    ID                          : 1
    Format                      : AVC
    Format/Info                 : Advanced Video Codec
    Format profile              : High@L4.1
    Format settings             : CABAC / 4 Ref Frames
    Format settings, CABAC      : Yes
    Format settings, Reference  : 4 frames
    Codec ID                    : V_MPEG4/ISO/AVC
    Duration                    : 1 h 14 min
    Bit rate                    : 3 500 kb/s
    Width                       : 1 920 pixels
    Height                      : 1 080 pixels
    Display aspect ratio        : 16:9
    Frame rate mode             : Constant
    Frame rate                  : 23.976 (24000/1001) FPS
    Color space                 : YUV
    Chroma subsampling          : 4:2:0
    Bit depth                   : 8 bits
    Scan type                   : Progressive
    Bits/(Pixel*Frame)          : 0.070
    Stream size                 : 1.80 GiB (73%)
    Writing library             : x264 core 157 r2935 545de2f
    Encoding settings           : cabac=1 / ref=4 / deblock=1:0:0 / analyse=0x3:0x113 / me=hex / subme=8 / psy=1 / psy_rd=1.00:0.00 / mixed_ref=1 / me_range=16 / chroma_me=1 / trellis=2 / 8x8dct=1 / cqm=0 / deadzone=21,11 / fast_pskip=1 / chroma_qp_offset=-2 / threads=24 / lookahead_threads=4 / sliced_threads=0 / nr=0 / decimate=1 / interlaced=0 / bluray_compat=0 / constrained_intra=0 / bframes=3 / b_pyramid=2 / b_adapt=1 / b_bias=0 / direct=3 / weightb=1 / open_gop=0 / weightp=2 / keyint=240 / keyint_min=24 / scenecut=40 / intra_refresh=0 / rc_lookahead=50 / rc=abr / mbtree=1 / bitrate=3500 / ratetol=1.0 / qcomp=0.60 / qpmin=0 / qpmax=69 / qpstep=4 / vbv_maxrate=62500 / vbv_bufsize=78125 / nal_hrd=none / filler=0 / ip_ratio=1.40 / aq=1:1.00
    Default                     : Yes
    Forced                      : No
    Color range                 : Limited
    Color primaries             : BT.709
    Transfer characteristics    : BT.709
    Matrix coefficients         : BT.709

    Audio #1
    ID                          : 2
    Format                      : AC-3
    Format/Info                 : Audio Coding 3
    Commercial name             : Dolby Digital
    Codec ID                    : A_AC3
    Duration                    : 1 h 14 min
    Bit rate mode               : Constant
    Bit rate                    : 640 kb/s
    Channel(s)                  : 6 channels
    Channel layout              : L R C LFE Ls Rs
    Sampling rate               : 48.0 kHz
    Frame rate                  : 31.250 FPS (1536 SPF)
    Compression mode            : Lossy
    Delay relative to video     : -5 ms
    Stream size                 : 341 MiB (14%)
    Language                    : Spanish
    Service kind                : Complete Main
    Default                     : Yes
    Forced                      : No

    Audio #2
    ID                          : 3
    Format                      : AC-3
    Format/Info                 : Audio Coding 3
    Commercial name             : Dolby Digital
    Codec ID                    : A_AC3
    Duration                    : 1 h 14 min
    Bit rate mode               : Constant
    Bit rate                    : 640 kb/s
    Channel(s)                  : 6 channels
    Channel layout              : L R C LFE Ls Rs
    Sampling rate               : 48.0 kHz
    Frame rate                  : 31.250 FPS (1536 SPF)
    Compression mode            : Lossy
    Delay relative to video     : -5 ms
    Stream size                 : 341 MiB (14%)
    Language                    : English
    Service kind                : Complete Main
    Default                     : No
    Forced                      : No

    Text
    ID                          : 4
    Format                      : UTF-8
    Codec ID                    : S_TEXT/UTF8
    Codec ID/Info               : UTF-8 Plain Text
    Duration                    : 1 h 14 min
    Bit rate                    : 13 b/s
    Count of elements           : 148
    Stream size                 : 7.38 KiB (0%)
    Language                    : Spanish
    Default                     : No
    Forced                      : No

    Menu
    00:00:00.000                : :Chapter 1
    00:01:16.577                : :Chapter 2
    00:04:08.540                : :Chapter 3
    00:05:36.628                : :Chapter 4
    00:15:50.491                : :Chapter 5
    00:16:46.005                : :Chapter 6
    00:29:18.674                : :Chapter 7
    00:30:34.750                : :Chapter 8
    00:38:04.240                : :Chapter 9
    00:38:47.534                : :Chapter 10
    00:40:42.065                : :Chapter 11
    00:42:16.534                : :Chapter 12
    00:51:52.610                : :Chapter 13
    00:52:51.794                : :Chapter 14
    00:59:09.087                : :Chapter 15
    00:59:32.778                : :Chapter 16
    01:08:46.122                : :Chapter 17

  • Peso: 2.47 GiB

Sinopsis

Sesenta años después de que Walt Disney creara «Fantasía», se rueda «Fantasía 2000», que une la animación más espectacular con una música de ensueño. La obra se divide en ocho partes. Una de ellas es una nueva versión de «El aprendiz de Brujo», de P. Dukas, protagonizada por Mickey Mouse. Pero hay mucho más: desde las divertidas travesuras de unos flamencos a la moderna ciudad en armonioso movimiento, un derroche de imaginación con música de fondo.

Ficha técnica

Video trailer de la película

Enlaces de descarga

Rip de Bluray

Descargar Fantasía 2000 (1999) HD 1080p Latino – CMHDD




Aportes de DPeliculasHDmega la pass es:dpeliculashdmega.org Aportes de CinemaniaHD la pass es:cinemaniahdd.com Aportes recientes:cinemaniahdd.net
Guardado en : Animación , Familia , HD 1080p , Música

Películas relacionadas

  • ¡Patos! (2023) HD 1080p Latino

    ¡Patos! (2023) HD 1080p Latino

    2023
    ¡Patos! (2023) HD 1080p Latino

    1h 23m 2023

    Descargar ¡Patos! (2023) HD 1080p Latino. Después de que una familia de patos migratorios aterriza...

    Director: Guy-Laurent Homsy

    Género: Acción

    Actores: Zeno Robinson

  • ¡Patos! (2023) PLACEBO Full HD 1080p Latino

    ¡Patos! (2023) PLACEBO Full HD 1080p Latino

    2023
    ¡Patos! (2023) PLACEBO Full HD 1080p Latino

    1h 23m 2023

    Descargar ¡Patos! (2023) PLACEBO Full HD 1080p Latino. Después de que una familia de patos migratorios...

    Director: Guy-Laurent Homsy

    Género: Acción

    Actores: Zeno Robinson

descargar Fantasía 2000 (1999) HD 1080p Latino – CMHDD 1080p 1080p gratis, Fantasía 2000 (1999) HD 1080p Latino – CMHDD 1080p mega 1 link, Fantasía 2000 (1999) HD 1080p Latino – CMHDD 1080p pelicula completa, descargar Fantasía 2000 (1999) HD 1080p Latino – CMHDD 1080p gratis en mega.

Fantasía 2000 (1999) HD 1080p Latino – CMHDD pelicula full hd, Fantasía 2000 (1999) HD 1080p Latino – CMHDD mega latino, Fantasía 2000 (1999) HD 1080p Latino – CMHDD 4k latino, Fantasía 2000 (1999) HD 1080p Latino – CMHDD pelicula completa, Fantasía 2000 (1999) HD 1080p Latino – CMHDD descargar gratis, descargar Fantasía 2000 (1999) HD 1080p Latino – CMHDD pelicula latino, Fantasía 2000 (1999) HD 1080p Latino – CMHDD 1 link mega, Fantasía 2000 (1999) HD 1080p Latino – CMHDD 1 link google drive, Fantasía 2000 (1999) HD 1080p Latino – CMHDD hd 1080p latino.
Comentarios 0