×

¿Problemas para descargar con Mozilla, EDGE? Deshabilita la opción "Abrir vinculos en una pestaña nueva" tal como lo muestra ésta imagen.

Fantasia (1940) HD 1080p Latino – CMHDD

577 vistas

Información de Fantasia (1940) HD 1080p Latino – CMHDD

Datos de la película

  • Calidad: 1080p
  • Audio: Español Latino AC3 5.1 BLURAY - Ingles AC3 5.1 BLURAY
  • Subtitulos: Español Latino SRT
  • Resolución: 1436x1080p
  • Formato: MKV
  • Codec: H.264
  • Encoder: Dracarys
  • Mediainfo: Clic para Mostrar Datos Ver
  • Format                      : Matroska
    Format version              : Version 4
    File size                   : 4.14 GiB
    Duration                    : 2 h 4 min
    Overall bit rate            : 4 760 kb/s
    Movie name                  : Fantasia (1940) HD 1080p Latino - CMHDD
    Encoded date                : UTC 2020-08-08 02:41:32
    Writing application         : mkvmerge v46.0.0 ('No Deeper Escape') 64-bit
    Writing library             : libebml v1.3.10 + libmatroska v1.5.2

    Video
    ID                          : 1
    Format                      : AVC
    Format/Info                 : Advanced Video Codec
    Format profile              : High@L4.1
    Format settings             : CABAC / 5 Ref Frames
    Format settings, CABAC      : Yes
    Format settings, Reference  : 5 frames
    Codec ID                    : V_MPEG4/ISO/AVC
    Duration                    : 2 h 4 min
    Bit rate                    : 3 500 kb/s
    Width                       : 1 436 pixels
    Height                      : 1 080 pixels
    Display aspect ratio        : 4:3
    Frame rate mode             : Constant
    Frame rate                  : 23.976 (24000/1001) FPS
    Color space                 : YUV
    Chroma subsampling          : 4:2:0
    Bit depth                   : 8 bits
    Scan type                   : Progressive
    Bits/(Pixel*Frame)          : 0.094
    Stream size                 : 3.02 GiB (73%)
    Writing library             : x264 core 157 r2935 545de2f
    Encoding settings           : cabac=1 / ref=5 / deblock=1:0:0 / analyse=0x3:0x113 / me=hex / subme=8 / psy=1 / psy_rd=1.00:0.00 / mixed_ref=1 / me_range=16 / chroma_me=1 / trellis=2 / 8x8dct=1 / cqm=0 / deadzone=21,11 / fast_pskip=1 / chroma_qp_offset=-2 / threads=24 / lookahead_threads=4 / sliced_threads=0 / nr=0 / decimate=1 / interlaced=0 / bluray_compat=0 / constrained_intra=0 / bframes=3 / b_pyramid=2 / b_adapt=1 / b_bias=0 / direct=3 / weightb=1 / open_gop=0 / weightp=2 / keyint=240 / keyint_min=24 / scenecut=40 / intra_refresh=0 / rc_lookahead=50 / rc=abr / mbtree=1 / bitrate=3500 / ratetol=1.0 / qcomp=0.60 / qpmin=0 / qpmax=69 / qpstep=4 / vbv_maxrate=62500 / vbv_bufsize=78125 / nal_hrd=none / filler=0 / ip_ratio=1.40 / aq=1:1.00
    Default                     : Yes
    Forced                      : No
    Color range                 : Limited
    Color primaries             : BT.709
    Transfer characteristics    : BT.709
    Matrix coefficients         : BT.709

    Audio #1
    ID                          : 2
    Format                      : AC-3
    Format/Info                 : Audio Coding 3
    Commercial name             : Dolby Digital
    Codec ID                    : A_AC3
    Duration                    : 2 h 4 min
    Bit rate mode               : Constant
    Bit rate                    : 640 kb/s
    Channel(s)                  : 6 channels
    Channel layout              : L R C LFE Ls Rs
    Sampling rate               : 48.0 kHz
    Frame rate                  : 31.250 FPS (1536 SPF)
    Compression mode            : Lossy
    Delay relative to video     : -5 ms
    Stream size                 : 570 MiB (13%)
    Language                    : Spanish
    Service kind                : Complete Main
    Default                     : Yes
    Forced                      : No

    Audio #2
    ID                          : 3
    Format                      : AC-3
    Format/Info                 : Audio Coding 3
    Commercial name             : Dolby Digital
    Codec ID                    : A_AC3
    Duration                    : 2 h 4 min
    Bit rate mode               : Constant
    Bit rate                    : 640 kb/s
    Channel(s)                  : 6 channels
    Channel layout              : L R C LFE Ls Rs
    Sampling rate               : 48.0 kHz
    Frame rate                  : 31.250 FPS (1536 SPF)
    Compression mode            : Lossy
    Delay relative to video     : -5 ms
    Stream size                 : 570 MiB (13%)
    Language                    : English
    Service kind                : Complete Main
    Default                     : No
    Forced                      : No

    Text
    ID                          : 4
    Format                      : UTF-8
    Codec ID                    : S_TEXT/UTF8
    Codec ID/Info               : UTF-8 Plain Text
    Duration                    : 1 h 48 min
    Bit rate                    : 13 b/s
    Count of elements           : 233
    Stream size                 : 11.0 KiB (0%)
    Language                    : Spanish
    Default                     : No
    Forced                      : No

    Menu
    00:00:00.000                : :Chapter 1
    00:03:59.114                : :Chapter 2
    00:13:39.819                : :Chapter 3
    00:14:20.860                : :Chapter 4
    00:28:48.143                : :Chapter 5
    00:29:49.997                : :Chapter 6
    00:39:36.374                : :Chapter 7
    00:42:42.560                : :Chapter 8
    01:05:23.920                : :Chapter 9
    01:08:45.538                : :Chapter 10
    01:12:12.537                : :Chapter 11
    01:13:52.845                : :Chapter 12
    01:36:10.390                : :Chapter 13
    01:37:01.816                : :Chapter 14
    01:49:20.971                : :Chapter 15
    01:50:27.621                : :Chapter 16
    01:58:25.098                : :Chapter 17

  • Peso: 4.14 GiB

Sinopsis

Todo un clásico de la Disney, una colección de interpretaciones animadas de grandes obras de música clásica. En «El Aprendiz de Brujo» (P. Dukas), Mickey Mouse, discípulo de un mago, se mete en un gran embrollo, pues sus conocimientos de magia son muy limitados. «La Consagración de la Primavera» (Stravinsky) cuenta la historia de la evolución, desde los seres unicelulares hasta la extinción de los dinosaurios. «La Danza de las Horas» (Ponchielli) es un fragmento de un ballet cómico interpretado por elefantes, hipopótamos, cocodrilos y avestruces. «Una Noche en el Monte Pelado» de Mussorgsky y el «Ave Maria» de Schubert describen el enfrentamiento entre la oscuridad y la luz.

Ficha técnica

Video trailer de la película

Enlaces de descarga

Rip de Bluray

Descargar Fantasia (1940) HD 1080p Latino – CMHDD




Aportes de DPeliculasHDmega la pass es:dpeliculashdmega.org Aportes de CinemaniaHD la pass es:cinemaniahdd.com Aportes recientes:cinemaniahdd.net
Guardado en : Animación , Familia , HD 1080p

Películas relacionadas

  • ¡Patos! (2023) HD 1080p Latino

    ¡Patos! (2023) HD 1080p Latino

    2023
    ¡Patos! (2023) HD 1080p Latino

    1h 23m 2023

    Descargar ¡Patos! (2023) HD 1080p Latino. Después de que una familia de patos migratorios aterriza...

    Director: Guy-Laurent Homsy

    Género: Acción

    Actores: Zeno Robinson

  • ¡Patos! (2023) PLACEBO Full HD 1080p Latino

    ¡Patos! (2023) PLACEBO Full HD 1080p Latino

    2023
    ¡Patos! (2023) PLACEBO Full HD 1080p Latino

    1h 23m 2023

    Descargar ¡Patos! (2023) PLACEBO Full HD 1080p Latino. Después de que una familia de patos migratorios...

    Director: Guy-Laurent Homsy

    Género: Acción

    Actores: Zeno Robinson

descargar Fantasia (1940) HD 1080p Latino – CMHDD 1080p 1080p gratis, Fantasia (1940) HD 1080p Latino – CMHDD 1080p mega 1 link, Fantasia (1940) HD 1080p Latino – CMHDD 1080p pelicula completa, descargar Fantasia (1940) HD 1080p Latino – CMHDD 1080p gratis en mega.

Fantasia (1940) HD 1080p Latino – CMHDD pelicula full hd, Fantasia (1940) HD 1080p Latino – CMHDD mega latino, Fantasia (1940) HD 1080p Latino – CMHDD 4k latino, Fantasia (1940) HD 1080p Latino – CMHDD pelicula completa, Fantasia (1940) HD 1080p Latino – CMHDD descargar gratis, descargar Fantasia (1940) HD 1080p Latino – CMHDD pelicula latino, Fantasia (1940) HD 1080p Latino – CMHDD 1 link mega, Fantasia (1940) HD 1080p Latino – CMHDD 1 link google drive, Fantasia (1940) HD 1080p Latino – CMHDD hd 1080p latino.
Comentarios 0