Fantasia (1940) Full HD 1080p Latino – CMHDD

84 vistas
1 estrella2 estrellas3 estrellas4 estrellas5 estrellas (Ninguna valoración todavía)
Cargando...

Información de Fantasia (1940) Full HD 1080p Latino – CMHDD

Datos de la película

  • Calidad: Full 1080p
  • Audio: Español Latino AC3 5.1 BLURAY - Ingles DTS-HD Master 7.1 BLURAY
  • Subtitulos: Español Latino SRT
  • Resolución: 1920x1080p
  • Formato: MKV
  • Codec: H.264
  • Encoder: Dracarys
  • Mediainfo: Clic para Mostrar Datos Ver
  • Format                      : Matroska
    Format version              : Version 4
    File size                   : 9.27 GiB
    Duration                    : 2 h 4 min
    Overall bit rate mode       : Variable
    Overall bit rate            : 10.7 Mb/s
    Movie name                  : Fantasia (1940) Full HD 1080p Latino - CMHDD
    Encoded date                : UTC 2020-08-08 02:40:05
    Writing application         : mkvmerge v46.0.0 ('No Deeper Escape') 64-bit
    Writing library             : libebml v1.3.10 + libmatroska v1.5.2

    Video
    ID                          : 1
    Format                      : AVC
    Format/Info                 : Advanced Video Codec
    Format profile              : High@L4.1
    Format settings             : CABAC / 4 Ref Frames
    Format settings, CABAC      : Yes
    Format settings, Reference  : 4 frames
    Codec ID                    : V_MPEG4/ISO/AVC
    Duration                    : 2 h 4 min
    Bit rate                    : 4 817 kb/s
    Width                       : 1 920 pixels
    Height                      : 1 080 pixels
    Display aspect ratio        : 16:9
    Frame rate mode             : Constant
    Frame rate                  : 23.976 (24000/1001) FPS
    Color space                 : YUV
    Chroma subsampling          : 4:2:0
    Bit depth                   : 8 bits
    Scan type                   : Progressive
    Bits/(Pixel*Frame)          : 0.097
    Stream size                 : 4.19 GiB (45%)
    Writing library             : x264 core 157 r2935 545de2f
    Encoding settings           : cabac=1 / ref=4 / deblock=1:0:0 / analyse=0x3:0x133 / me=tesa / subme=11 / psy=1 / psy_rd=1.00:0.00 / mixed_ref=1 / me_range=24 / chroma_me=1 / trellis=2 / 8x8dct=1 / cqm=0 / deadzone=21,11 / fast_pskip=0 / chroma_qp_offset=-2 / threads=24 / lookahead_threads=6 / sliced_threads=0 / nr=0 / decimate=1 / interlaced=0 / bluray_compat=0 / constrained_intra=0 / bframes=16 / b_pyramid=2 / b_adapt=2 / b_bias=0 / direct=3 / weightb=1 / open_gop=0 / weightp=2 / keyint=240 / keyint_min=24 / scenecut=40 / intra_refresh=0 / rc_lookahead=60 / rc=crf / mbtree=1 / crf=20.0 / qcomp=0.60 / qpmin=0 / qpmax=69 / qpstep=4 / vbv_maxrate=62500 / vbv_bufsize=78125 / crf_max=0.0 / nal_hrd=none / filler=0 / ip_ratio=1.40 / aq=1:1.00
    Default                     : Yes
    Forced                      : No
    Color range                 : Limited
    Color primaries             : BT.709
    Transfer characteristics    : BT.709
    Matrix coefficients         : BT.709

    Audio #1
    ID                          : 2
    Format                      : AC-3
    Format/Info                 : Audio Coding 3
    Commercial name             : Dolby Digital
    Codec ID                    : A_AC3
    Duration                    : 2 h 4 min
    Bit rate mode               : Constant
    Bit rate                    : 640 kb/s
    Channel(s)                  : 6 channels
    Channel layout              : L R C LFE Ls Rs
    Sampling rate               : 48.0 kHz
    Frame rate                  : 31.250 FPS (1536 SPF)
    Compression mode            : Lossy
    Stream size                 : 570 MiB (6%)
    Language                    : Spanish
    Service kind                : Complete Main
    Default                     : Yes
    Forced                      : No

    Audio #2
    ID                          : 3
    Format                      : DTS XLL
    Format/Info                 : Digital Theater Systems
    Commercial name             : DTS-HD Master Audio
    Codec ID                    : A_DTS
    Duration                    : 2 h 4 min
    Bit rate mode               : Variable
    Bit rate                    : 5 201 kb/s
    Channel(s)                  : 8 channels
    Channel layout              : C L R LFE Lb Rb Lss Rss
    Sampling rate               : 48.0 kHz
    Frame rate                  : 93.750 FPS (512 SPF)
    Bit depth                   : 24 bits
    Compression mode            : Lossless
    Stream size                 : 4.52 GiB (49%)
    Language                    : English
    Default                     : No
    Forced                      : No

    Text
    ID                          : 4
    Format                      : UTF-8
    Codec ID                    : S_TEXT/UTF8
    Codec ID/Info               : UTF-8 Plain Text
    Duration                    : 1 h 48 min
    Bit rate                    : 13 b/s
    Count of elements           : 233
    Stream size                 : 11.0 KiB (0%)
    Language                    : Spanish
    Default                     : No
    Forced                      : No

    Menu
    00:00:00.000                : :Chapter 1
    00:03:59.114                : :Chapter 2
    00:13:39.819                : :Chapter 3
    00:14:20.860                : :Chapter 4
    00:28:48.143                : :Chapter 5
    00:29:49.997                : :Chapter 6
    00:39:36.374                : :Chapter 7
    00:42:42.560                : :Chapter 8
    01:05:23.920                : :Chapter 9
    01:08:45.538                : :Chapter 10
    01:12:12.537                : :Chapter 11
    01:13:52.845                : :Chapter 12
    01:36:10.390                : :Chapter 13
    01:37:01.816                : :Chapter 14
    01:49:20.971                : :Chapter 15
    01:50:27.621                : :Chapter 16
    01:58:25.098                : :Chapter 17
     

  • Peso: 9.27 GiB

Sinopsis

Todo un clásico de la Disney, una colección de interpretaciones animadas de grandes obras de música clásica. En «El Aprendiz de Brujo» (P. Dukas), Mickey Mouse, discípulo de un mago, se mete en un gran embrollo, pues sus conocimientos de magia son muy limitados. «La Consagración de la Primavera» (Stravinsky) cuenta la historia de la evolución, desde los seres unicelulares hasta la extinción de los dinosaurios. «La Danza de las Horas» (Ponchielli) es un fragmento de un ballet cómico interpretado por elefantes, hipopótamos, cocodrilos y avestruces. «Una Noche en el Monte Pelado» de Mussorgsky y el «Ave Maria» de Schubert describen el enfrentamiento entre la oscuridad y la luz.

Ficha técnica

Video trailer de la película

Enlaces de descarga

Rip de Bluray

Descargar Fantasia (1940) Full HD 1080p Latino – CMHDD




Aportes de DPeliculasHDmega la pass es:dpeliculashdmega.org Aportes de CinemaniaHD la pass es:cinemaniahdd.com

Películas relacionadas

Comentarios 0