×

¿Problemas para descargar con Mozilla, EDGE? Deshabilita la opción "Abrir vinculos en una pestaña nueva" tal como lo muestra ésta imagen.

Familia al instante (2018) REMUX 1080p Latino

948 vistas

Información de Familia al instante (2018) REMUX 1080p Latino

Datos de la película

  • Calidad: Full 1080p
  • Audio: Español Latino AC3 5.1 BLURAY - DTS-HD Master 7.1 BLURAY
  • Subtitulos: Español Latino SRT- FORZADOS SRT
  • Resolución: 1920x1080p
  • Formato: MKV
  • Codec: H.264
  • Encoder: Dracarys
  • Mediainfo: Clic para Mostrar Datos Ver
  • Format                      : Matroska
    Format version              : Version 4
    File size                   : 26.4 GiB
    Duration                    : 1 h 58 min
    Overall bit rate mode       : Variable
    Overall bit rate            : 32.0 Mb/s
    Movie name                  : CinemaniaHDD.net
    Encoded date                : UTC 2019-04-02 20:36:10
    Writing application         : mkvmerge v30.1.0 ('Forever And More') 64-bit
    Writing library             : libebml v1.3.6 + libmatroska v1.4.9

    Video
    ID                          : 1
    Format                      : AVC
    Format/Info                 : Advanced Video Codec
    Format profile              : High@L4.1
    Format settings             : CABAC / 4 Ref Frames
    Format settings, CABAC      : Yes
    Format settings, ReFrames   : 4 frames
    Codec ID                    : V_MPEG4/ISO/AVC
    Duration                    : 1 h 58 min
    Bit rate mode               : Variable
    Bit rate                    : 27.4 Mb/s
    Maximum bit rate            : 30.5 Mb/s
    Width                       : 1 920 pixels
    Height                      : 1 080 pixels
    Display aspect ratio        : 16:9
    Frame rate mode             : Constant
    Frame rate                  : 23.976 (24000/1001) FPS
    Color space                 : YUV
    Chroma subsampling          : 4:2:0
    Bit depth                   : 8 bits
    Scan type                   : Progressive
    Bits/(Pixel*Frame)          : 0.551
    Stream size                 : 22.6 GiB (85%)
    Language                    : English
    Default                     : No
    Forced                      : No

    Audio #1
    ID                          : 2
    Format                      : DTS XLL
    Format/Info                 : Digital Theater Systems
    Commercial name             : DTS-HD Master Audio
    Codec ID                    : A_DTS
    Duration                    : 1 h 58 min
    Bit rate mode               : Variable
    Bit rate                    : 3 976 kb/s
    Channel(s)                  : 8 channels
    Channel layout              : C L R LFE Lb Rb Lss Rss
    Sampling rate               : 48.0 kHz
    Frame rate                  : 93.750 FPS (512 SPF)
    Bit depth                   : 24 bits
    Compression mode            : Lossless
    Stream size                 : 3.28 GiB (12%)
    Language                    : English
    Default                     : No
    Forced                      : No

    Audio #2
    ID                          : 3
    Format                      : AC-3
    Format/Info                 : Audio Coding 3
    Commercial name             : Dolby Digital
    Codec ID                    : A_AC3
    Duration                    : 1 h 58 min
    Bit rate mode               : Constant
    Bit rate                    : 640 kb/s
    Channel(s)                  : 6 channels
    Channel layout              : L R C LFE Ls Rs
    Sampling rate               : 48.0 kHz
    Frame rate                  : 31.250 FPS (1536 SPF)
    Bit depth                   : 16 bits
    Compression mode            : Lossy
    Stream size                 : 541 MiB (2%)
    Language                    : Spanish
    Service kind                : Complete Main
    Default                     : Yes
    Forced                      : Yes

    Text #1
    ID                          : 4
    Format                      : PGS
    Muxing mode                 : zlib
    Codec ID                    : S_HDMV/PGS
    Codec ID/Info               : Picture based subtitle format used on BDs/HD-DVDs
    Duration                    : 1 h 53 min
    Bit rate                    : 59.9 kb/s
    Count of elements           : 4369
    Stream size                 : 48.7 MiB (0%)
    Title                       : Spanish-PGS
    Language                    : Spanish
    Default                     : No
    Forced                      : No

    Text #2
    ID                          : 5
    Format                      : PGS
    Muxing mode                 : zlib
    Codec ID                    : S_HDMV/PGS
    Codec ID/Info               : Picture based subtitle format used on BDs/HD-DVDs
    Duration                    : 1 h 53 min
    Bit rate                    : 629 b/s
    Count of elements           : 42
    Stream size                 : 524 KiB (0%)
    Title                       : Spanish-FORCED-PGS
    Language                    : Spanish
    Default                     : No
    Forced                      : No

    Text #3
    ID                          : 6
    Format                      : UTF-8
    Codec ID                    : S_TEXT/UTF8
    Codec ID/Info               : UTF-8 Plain Text
    Duration                    : 1 h 53 min
    Bit rate                    : 84 b/s
    Count of elements           : 2184
    Stream size                 : 70.5 KiB (0%)
    Title                       : Completos-SRT
    Language                    : Spanish
    Default                     : No
    Forced                      : No

    Text #4
    ID                          : 7
    Format                      : UTF-8
    Codec ID                    : S_TEXT/UTF8
    Codec ID/Info               : UTF-8 Plain Text
    Duration                    : 1 h 53 min
    Bit rate                    : 0 b/s
    Count of elements           : 21
    Stream size                 : 620 Bytes (0%)
    Title                       : Forzados-SRT
    Language                    : Spanish
    Default                     : Yes
    Forced                      : Yes

    Menu
    00:00:00.000                : en:Chapter 01
    00:07:54.807                : en:Chapter 02
    00:13:08.621                : en:Chapter 03
    00:24:59.539                : en:Chapter 04
    00:32:26.235                : en:Chapter 05
    00:37:12.897                : en:Chapter 06
    00:44:44.264                : en:Chapter 07
    00:50:12.467                : en:Chapter 08
    00:57:41.249                : en:Chapter 09
    01:02:31.831                : en:Chapter 10
    01:08:50.751                : en:Chapter 11
    01:15:25.854                : en:Chapter 12
    01:23:04.688                : en:Chapter 13
    01:28:42.567                : en:Chapter 14
    01:37:53.993                : en:Chapter 15
    01:52:54.392                : en:Chapter 16

  • Peso: 26.4 GiB

Sinopsis

La emoción y alegría de convertirse en padres llega de pronto para Pete y Ellie, una joven pareja que decide compartir su felicidad y sumar a su familia a Juan, Lita y Lizzy, tres niños que son hermanos entre sí­. Pero con ello también comienzan muchos berrinches, puertas azotadas, cenas accidentadas, responsabilidades triples, pero sobre todo, una gran familia.

Ficha técnica

  • Titulo original: Instant Family
  • Fecha de lanzamiento: 16-11-2018 (United States of America)
  • Director: Sean Anders
  • Género: Comedia, Drama, Remux

Video trailer de la película

Enlaces de descarga

Rip de Bluray

Descargar Familia al instante (2018) REMUX 1080p Latino




Aportes de DPeliculasHDmega la pass es:dpeliculashdmega.org Aportes de CinemaniaHD la pass es:cinemaniahdd.com
Guardado en : Comedia , Drama , Remux

Películas relacionadas

Familia al instante (2018) REMUX 1080p Latino pelicula full hd, Familia al instante (2018) REMUX 1080p Latino mega latino, Familia al instante (2018) REMUX 1080p Latino 4k latino, Familia al instante (2018) REMUX 1080p Latino pelicula completa, Familia al instante (2018) REMUX 1080p Latino descargar gratis, descargar Familia al instante (2018) REMUX 1080p Latino pelicula latino, Familia al instante (2018) REMUX 1080p Latino 1 link mega, Familia al instante (2018) REMUX 1080p Latino 1 link google drive, Familia al instante (2018) REMUX 1080p Latino hd 1080p latino.
Comentarios 0