×

¿Problemas para descargar con Mozilla, EDGE? Deshabilita la opción "Abrir vinculos en una pestaña nueva" tal como lo muestra ésta imagen.

Falsa Influencer (2022) D+ WEB-DL 4K UHD HDR Latino

434 vistas

Información de Falsa Influencer (2022) D+ WEB-DL 4K UHD HDR Latino

Datos de la película

  • Calidad: WEBDL
  • Audio: Se especifica abajo de la Sinopsis
  • Subtitulos: Español Latino SRT- FORZADOS SRT
  • Resolución: 3840x2160p
  • Formato: MKV
  • Codec: HEVC
  • Encoder: Melkor
  • Mediainfo: Clic para Mostrar Datos Ver
  • Falsa Influencer (2022) D+ WEB UHD HDR Latino.mkv
    Format                      : Matroska
    Format version              : Version 4
    File size                   : 12.4 GiB
    Duration                    : 1 h 42 min
    Overall bit rate            : 17.3 Mb/s
    Movie name                  : Not Okay (2022) CinemaniaHDD.Net
    Encoded date                : UTC 2022-07-29 21:16:10
    Writing application         : mkvmerge v56.1.0 ('My Friend') 64-bit
    Writing library             : libebml v1.4.2 + libmatroska v1.6.4
    Attachments                 : CINEMANIAHD.png

    Video
    ID                          : 1
    Format                      : HEVC
    Format/Info                 : High Efficiency Video Coding
    Format profile              : Main 10@L5@High
    HDR format                  : SMPTE ST 2086, HDR10 compatible
    Codec ID                    : V_MPEGH/ISO/HEVC
    Duration                    : 1 h 42 min
    Bit rate                    : 16.3 Mb/s
    Width                       : 3 840 pixels
    Height                      : 2 160 pixels
    Display aspect ratio        : 16:9
    Frame rate mode             : Constant
    Frame rate                  : 24.000 FPS
    Color space                 : YUV
    Chroma subsampling          : 4:2:0
    Bit depth                   : 10 bits
    Bits/(Pixel*Frame)          : 0.082
    Stream size                 : 11.7 GiB (94%)
    Title                       : Web 2160p HDR [CinemaniaHDD]
    Language                    : English
    Default                     : Yes
    Forced                      : No
    Color range                 : Limited
    Color primaries             : BT.2020
    Transfer characteristics    : PQ
    Matrix coefficients         : BT.2020 non-constant
    Mastering display color pri : BT.2020
    Mastering display luminance : min: 0.0001 cd/m2, max: 1000 cd/m2

    Audio #1
    ID                          : 2
    Format                      : AC-3
    Format/Info                 : Audio Coding 3
    Commercial name             : Dolby Digital
    Codec ID                    : A_AC3
    Duration                    : 1 h 42 min
    Bit rate mode               : Constant
    Bit rate                    : 448 kb/s
    Channel(s)                  : 6 channels
    Channel layout              : L R C LFE Ls Rs
    Sampling rate               : 48.0 kHz
    Frame rate                  : 31.250 FPS (1536 SPF)
    Compression mode            : Lossy
    Stream size                 : 329 MiB (3%)
    Title                       : Español Latino AC3 [CinemaniaHDD]
    Language                    : Spanish
    Service kind                : Complete Main
    Default                     : Yes
    Forced                      : Yes

    Audio #2
    ID                          : 3
    Format                      : E-AC-3
    Format/Info                 : Enhanced AC-3
    Commercial name             : Dolby Digital Plus
    Codec ID                    : A_EAC3
    Duration                    : 1 h 42 min
    Bit rate mode               : Constant
    Bit rate                    : 256 kb/s
    Channel(s)                  : 6 channels
    Channel layout              : L R C LFE Ls Rs
    Sampling rate               : 48.0 kHz
    Frame rate                  : 31.250 FPS (1536 SPF)
    Compression mode            : Lossy
    Stream size                 : 188 MiB (1%)
    Title                       : Español Latino EAC3 [CinemaniaHDD]
    Language                    : Spanish
    Service kind                : Complete Main
    Default                     : No
    Forced                      : No

    Audio #3
    ID                          : 4
    Format                      : E-AC-3
    Format/Info                 : Enhanced AC-3
    Commercial name             : Dolby Digital Plus
    Codec ID                    : A_EAC3
    Duration                    : 1 h 42 min
    Bit rate mode               : Constant
    Bit rate                    : 256 kb/s
    Channel(s)                  : 6 channels
    Channel layout              : L R C LFE Ls Rs
    Sampling rate               : 48.0 kHz
    Frame rate                  : 31.250 FPS (1536 SPF)
    Compression mode            : Lossy
    Stream size                 : 188 MiB (1%)
    Title                       : Ingles [CinemaniaHDD]
    Language                    : English
    Service kind                : Complete Main
    Default                     : No
    Forced                      : No

    Text #1
    ID                          : 5
    Format                      : UTF-8
    Codec ID                    : S_TEXT/UTF8
    Codec ID/Info               : UTF-8 Plain Text
    Duration                    : 1 h 42 min
    Bit rate                    : 1 b/s
    Count of elements           : 41
    Stream size                 : 1.28 KiB (0%)
    Title                       : Forzados-SRT [CinemaniaHDD]
    Language                    : Spanish
    Default                     : Yes
    Forced                      : Yes

    Text #2
    ID                          : 6
    Format                      : UTF-8
    Codec ID                    : S_TEXT/UTF8
    Codec ID/Info               : UTF-8 Plain Text
    Duration                    : 1 h 42 min
    Bit rate                    : 61 b/s
    Count of elements           : 1331
    Stream size                 : 46.1 KiB (0%)
    Title                       : Español-SRT [CinemaniaHDD]
    Language                    : Spanish
    Default                     : No
    Forced                      : No

    Text #3
    ID                          : 7
    Format                      : UTF-8
    Codec ID                    : S_TEXT/UTF8
    Codec ID/Info               : UTF-8 Plain Text
    Duration                    : 1 h 41 min
    Bit rate                    : 78 b/s
    Count of elements           : 1600
    Stream size                 : 58.5 KiB (0%)
    Title                       : Ingles-SRT [CinemaniaHDD]
    Language                    : English
    Default                     : No
    Forced                      : No

  • Peso: 12.4 GiB

Sinopsis

Descargar Falsa Influencer (2022) D+ WEB-DL 4K UHD HDR Latino. Una joven desesperada por amigos y fama, finge un viaje a París para actualizar su presencia en las redes sociales. En el mundo real tiene lugar un incidente aterrador que se convierte en parte del viaje imaginario y que ella deberá resolver.

Español Latino EAC3 & AC3 5.1 D+ – Ingles EAC3 5.1 D+

Ficha técnica

Video trailer de la película

Enlaces de descarga

Rip de Bluray

Descargar Falsa Influencer (2022) D+ WEB-DL 4K UHD HDR Latino




Aportes de DPeliculasHDmega la pass es:dpeliculashdmega.org Aportes de CinemaniaHD la pass es:cinemaniahdd.com
Guardado en : 4K HDR , 4K UHD , Comedia , Drama

Películas relacionadas

descargar Falsa Influencer (2022) D+ WEB-DL 4K UHD HDR Latino WEBDL 1080p gratis, Falsa Influencer (2022) D+ WEB-DL 4K UHD HDR Latino WEBDL mega 1 link, Falsa Influencer (2022) D+ WEB-DL 4K UHD HDR Latino WEBDL pelicula completa, descargar Falsa Influencer (2022) D+ WEB-DL 4K UHD HDR Latino WEBDL gratis en mega.

Falsa Influencer (2022) D+ WEB-DL 4K UHD HDR Latino pelicula full hd, Falsa Influencer (2022) D+ WEB-DL 4K UHD HDR Latino mega latino, Falsa Influencer (2022) D+ WEB-DL 4K UHD HDR Latino 4k latino, Falsa Influencer (2022) D+ WEB-DL 4K UHD HDR Latino pelicula completa, Falsa Influencer (2022) D+ WEB-DL 4K UHD HDR Latino descargar gratis, descargar Falsa Influencer (2022) D+ WEB-DL 4K UHD HDR Latino pelicula latino, Falsa Influencer (2022) D+ WEB-DL 4K UHD HDR Latino 1 link mega, Falsa Influencer (2022) D+ WEB-DL 4K UHD HDR Latino 1 link google drive, Falsa Influencer (2022) D+ WEB-DL 4K UHD HDR Latino hd 1080p latino.
Comentarios 2
  • Alex - 01 agosto, 2022

    Cual es la contraseña para descomprimir???? ya que marca error

    • Melkor - 02 agosto, 2022

      La Contraseña está indicada en el paste escribirla manualmente, copiar y pegar no funciona, sin comillas: «dpeliculashdmega.org» para aportes muy antiguos, «cinemaniahdd.com» para aportes mas recientes y/o con «.net» para los mas nuevos