×

¿Problemas para descargar con Mozilla, EDGE? Deshabilita la opción "Abrir vinculos en una pestaña nueva" tal como lo muestra ésta imagen.

Fallout (2024) Primera Temporada AMZN WEB-DL 1080p Latino

112 vistas

Información de Fallout (2024) Primera Temporada AMZN WEB-DL 1080p Latino

Datos de la película

  • Calidad: 1080p
  • Audio: Español Latino AC3 5.1 WEB-DL - Ingles AC3 5.1 WEB-DL
  • Subtitulos: Español Latino SRT- FORZADOS SRT
  • Resolución: 1920x1080
  • Formato: MKV
  • Codec: H.264
  • Encoder: cinemaniahdd
  • Mediainfo: Clic para Mostrar Datos Ver
  • Fallout T01E01 AMZN WEB-DL 1080p Latino [CNMNHDD].mkv
    Format                      : Matroska
    Format version              : Version 4
    File size                   : 5.34 GiB
    Duration                    : 1 h 14 min
    Overall bit rate            : 10.2 Mb/s
    Movie name                  : Fallout S01E01 - El Fin [1080p] - CinemaniaHDD.Net
    Encoded date                : UTC 2024-04-11 01:10:50
    Writing application         : mkvmerge v56.1.0 ('My Friend') 64-bit
    Writing library             : libebml v1.4.2 + libmatroska v1.6.4

    Video
    ID                          : 1
    Format                      : AVC
    Format/Info                 : Advanced Video Codec
    Format profile              : High@L4
    Format settings             : CABAC / 4 Ref Frames
    Format settings, CABAC      : Yes
    Format settings, Reference  : 4 frames
    Codec ID                    : V_MPEG4/ISO/AVC
    Duration                    : 1 h 14 min
    Bit rate mode               : Constant
    Bit rate                    : 8 279 kb/s
    Nominal bit rate            : 10 000 kb/s
    Width                       : 1 920 pixels
    Height                      : 1 080 pixels
    Display aspect ratio        : 16:9
    Frame rate mode             : Constant
    Frame rate                  : 24.000 FPS
    Color space                 : YUV
    Chroma subsampling          : 4:2:0
    Bit depth                   : 8 bits
    Scan type                   : Progressive
    Bits/(Pixel*Frame)          : 0.166
    Stream size                 : 4.33 GiB (81%)
    Title                       : CinemaniaHDD.Net
    Default                     : Yes
    Forced                      : No
    Color range                 : Limited
    Color primaries             : BT.709
    Transfer characteristics    : BT.709
    Matrix coefficients         : BT.709

    Audio #1
    ID                          : 2
    Format                      : AC-3
    Format/Info                 : Audio Coding 3
    Commercial name             : Dolby Digital
    Codec ID                    : A_AC3
    Duration                    : 1 h 14 min
    Bit rate mode               : Constant
    Bit rate                    : 640 kb/s
    Channel(s)                  : 6 channels
    Channel layout              : L R C LFE Ls Rs
    Sampling rate               : 48.0 kHz
    Frame rate                  : 31.250 FPS (1536 SPF)
    Compression mode            : Lossy
    Stream size                 : 343 MiB (6%)
    Title                       : Español Latino (AC3) [CinemaniaHDD]
    Language                    : Spanish
    Service kind                : Complete Main
    Default                     : Yes
    Forced                      : No

    Audio #2
    ID                          : 3
    Format                      : E-AC-3
    Format/Info                 : Enhanced AC-3
    Commercial name             : Dolby Digital Plus
    Codec ID                    : A_EAC3
    Duration                    : 1 h 14 min
    Bit rate mode               : Constant
    Bit rate                    : 640 kb/s
    Channel(s)                  : 6 channels
    Channel layout              : L R C LFE Ls Rs
    Sampling rate               : 48.0 kHz
    Frame rate                  : 31.250 FPS (1536 SPF)
    Compression mode            : Lossy
    Stream size                 : 343 MiB (6%)
    Title                       : Español Latino (E-AC3) [CinemaniaHDD]
    Language                    : Spanish
    Service kind                : Complete Main
    Default                     : No
    Forced                      : No

    Audio #3
    ID                          : 4
    Format                      : E-AC-3
    Format/Info                 : Enhanced AC-3
    Commercial name             : Dolby Digital Plus
    Codec ID                    : A_EAC3
    Duration                    : 1 h 14 min
    Bit rate mode               : Constant
    Bit rate                    : 640 kb/s
    Channel(s)                  : 6 channels
    Channel layout              : L R C LFE Ls Rs
    Sampling rate               : 48.0 kHz
    Frame rate                  : 31.250 FPS (1536 SPF)
    Compression mode            : Lossy
    Stream size                 : 343 MiB (6%)
    Title                       : Inglés (Original) [CinemaniaHDD]
    Language                    : English
    Service kind                : Complete Main
    Default                     : No
    Forced                      : No

    Text #1
    ID                          : 5
    Format                      : UTF-8
    Codec ID                    : S_TEXT/UTF8
    Codec ID/Info               : UTF-8 Plain Text
    Duration                    : 1 h 7 min
    Bit rate                    : 1 b/s
    Count of elements           : 27
    Stream size                 : 561 Bytes (0%)
    Title                       : Forzados [CinemaniaHDD]
    Language                    : Spanish
    Default                     : Yes
    Forced                      : Yes

    Text #2
    ID                          : 6
    Format                      : UTF-8
    Codec ID                    : S_TEXT/UTF8
    Codec ID/Info               : UTF-8 Plain Text
    Duration                    : 1 h 11 min
    Bit rate                    : 27 b/s
    Count of elements           : 496
    Stream size                 : 14.2 KiB (0%)
    Title                       : Español Latino [CinemaniaHDD]
    Language                    : Spanish
    Default                     : No
    Forced                      : No

    Text #3
    ID                          : 7
    Format                      : UTF-8
    Codec ID                    : S_TEXT/UTF8
    Codec ID/Info               : UTF-8 Plain Text
    Duration                    : 1 h 9 min
    Bit rate                    : 37 b/s
    Count of elements           : 787
    Stream size                 : 19.2 KiB (0%)
    Title                       : Inglés [CinemaniaHDD]
    Language                    : English
    Default                     : No
    Forced                      : No

    Menu
    00:00:00.000                : Studio Logo
    00:00:16.000                : Scene 2
    00:03:22.000                : Scene 3
    00:07:03.000                : Title Sequence
    00:07:11.000                : Scene 5
    00:09:03.000                : Scene 6
    00:12:03.000                : Scene 7
    00:15:50.000                : Scene 8
    00:17:36.000                : Scene 9
    00:18:33.000                : Scene 10
    00:20:23.000                : Scene 11
    00:26:16.000                : Scene 12
    00:31:00.000                : Scene 13
    00:33:37.000                : Scene 14
    00:37:22.000                : Scene 15
    00:38:58.000                : Scene 16
    00:40:49.000                : Scene 17
    00:41:26.000                : Scene 18
    00:43:37.000                : Scene 19
    00:44:54.000                : Scene 20
    00:47:58.000                : Scene 21
    00:50:01.000                : Scene 22
    00:54:50.000                : Scene 23
    00:56:01.000                : Scene 24
    00:59:20.000                : Scene 25
    01:06:09.000                : End Credits
    01:07:37.000                : Next on
    01:09:57.000                : End Credits

     

  • Peso: 5.34 GiB Aprox ---- 35 GiB in 8 Chapters.

Sinopsis

Basada en uno de los mejores videojuegos de la historia, Fallout cuenta la historia de los que tienen más y de los que tienen menos en un mundo al cual no le queda casi nada. Doscientos años después del apocalipsis, los amables moradores de unos refugios nucleares de lujo se ven obligados a volver al universo complejo, alegremente raro y extremadamente violento que los espera en la superficie.

Ficha técnica

Video trailer de la película

Enlaces de descarga

Rip de Bluray

Descargar Fallout (2024) Primera Temporada AMZN WEB-DL 1080p Latino




Aportes de DPeliculasHDmega la pass es:dpeliculashdmega.org Aportes de CinemaniaHD la pass es:cinemaniahdd.com Aportes recientes:cinemaniahdd.net

Películas relacionadas

  • Perra vida (2024) AMZN WEB-DL 1080p Latino

    Perra vida (2024) AMZN WEB-DL 1080p Latino

    2024
    Perra vida (2024) AMZN WEB-DL 1080p Latino

    1h 48m 2024

    Descargar Perra vida (2024) AMZN WEB-DL 1080p Latino. Para contentar a su hija, Romina (una abogada obsesiva...

    Director: Gabriela Sobarzo

    Género: Comedia

    Actores: Sergio Chamy

  • The Veil (2024) Temporada 1 WEB-DL 1080p Latino

    The Veil (2024) Temporada 1 WEB-DL 1080p Latino

    2024
    The Veil (2024) Temporada 1 WEB-DL 1080p Latino

    0h 0m 2024

    Descargar The Veil (2024) Temporada 1 WEB-DL 1080p Latino. La relación entre dos mujeres que arman un...

    Director: Steven Knight

    Género: Drama

    Actores: Yumna Marwan

  • Kung Fu Panda 4 (2024) 1080p Latino-CMHDD

    Kung Fu Panda 4 (2024) 1080p Latino-CMHDD

    2024
    Kung Fu Panda 4 (2024) 1080p Latino-CMHDD

    1h 34m 2024

    Descargar Kung Fu Panda 4 (2024) 1080p Latino-CMHDD. Po se prepara para ser el líder espiritual del...

    Director: Stephanie Ma Stine

    Género: Acción

    Actores: Viola Davis

  • Kung Fu Panda 4 (2024) Full HD 1080p Latino-CMHDD

    Kung Fu Panda 4 (2024) Full HD 1080p Latino-CMHDD

    2024
    Kung Fu Panda 4 (2024) Full HD 1080p Latino-CMHDD

    1h 34m 2024

    Descargar Kung Fu Panda 4 (2024) Full HD 1080p Latino-CMHDD. Po se prepara para ser el líder espiritual...

    Director: Stephanie Ma Stine

    Género: Acción

    Actores: Viola Davis

descargar Fallout (2024) Primera Temporada AMZN WEB-DL 1080p Latino 1080p 1080p gratis, Fallout (2024) Primera Temporada AMZN WEB-DL 1080p Latino 1080p mega 1 link, Fallout (2024) Primera Temporada AMZN WEB-DL 1080p Latino 1080p serie completa, descargar Fallout (2024) Primera Temporada AMZN WEB-DL 1080p Latino 1080p gratis en mega.

Fallout (2024) Primera Temporada AMZN WEB-DL 1080p Latino pelicula full hd, Fallout (2024) Primera Temporada AMZN WEB-DL 1080p Latino mega latino, Fallout (2024) Primera Temporada AMZN WEB-DL 1080p Latino 4k latino, Fallout (2024) Primera Temporada AMZN WEB-DL 1080p Latino pelicula completa, Fallout (2024) Primera Temporada AMZN WEB-DL 1080p Latino descargar gratis, descargar Fallout (2024) Primera Temporada AMZN WEB-DL 1080p Latino pelicula latino, Fallout (2024) Primera Temporada AMZN WEB-DL 1080p Latino 1 link mega, Fallout (2024) Primera Temporada AMZN WEB-DL 1080p Latino 1 link google drive, Fallout (2024) Primera Temporada AMZN WEB-DL 1080p Latino hd 1080p latino.
Comentarios 0