×

¿Problemas para descargar con Mozilla, EDGE? Deshabilita la opción "Abrir vinculos en una pestaña nueva" tal como lo muestra ésta imagen.

Rostros robados (2011) 1080p Latino-CMHDD

51 vistas

Información de Rostros robados (2011) 1080p Latino-CMHDD

Datos de la película

  • Calidad: 1080p
  • Audio: Español Latino AC3 2.0 DVD - Ingles AC3 5.1 BLURAY
  • Subtitulos: Español Latino SRT - Ingles SRT
  • Resolución: 1920x800p
  • Formato: MKV
  • Codec: H.264
  • Encoder: CinefiloCool
  • Mediainfo: Clic para Mostrar Datos Ver
  • Faces.in.the.Crowd.2011.Bluray.1080p.x264.Latino-CC@CMHDD.mkv
    Format                      : Matroska
    Format version              : Version 4
    File size                   : 4.30 GiB
    Duration                    : 1 h 38 min
    Overall bit rate            : 6 272 kb/s
    Movie name                  : Faces in the Crowd (2011) CinemaniaHDD.Net
    Encoded date                : UTC 2024-03-10 07:44:39
    Writing application         : mkvmerge v56.1.0 ('My Friend') 64-bit
    Writing library             : libebml v1.4.2 + libmatroska v1.6.4
    Attachments                 : CINEMANIAHD.png

    Video
    ID                          : 1
    Format                      : AVC
    Format/Info                 : Advanced Video Codec
    Format profile              : High@L4.1
    Format settings             : CABAC / 5 Ref Frames
    Format settings, CABAC      : Yes
    Format settings, Reference  : 5 frames
    Codec ID                    : V_MPEG4/ISO/AVC
    Duration                    : 1 h 38 min
    Bit rate                    : 5 566 kb/s
    Width                       : 1 920 pixels
    Height                      : 800 pixels
    Display aspect ratio        : 2.40:1
    Frame rate mode             : Constant
    Frame rate                  : 25.000 FPS
    Color space                 : YUV
    Chroma subsampling          : 4:2:0
    Bit depth                   : 8 bits
    Scan type                   : Progressive
    Bits/(Pixel*Frame)          : 0.145
    Stream size                 : 3.82 GiB (89%)
    Title                       : HD1080p [CinemaniaHDD]
    Writing library             : x264 core 124 r2197 69a0443
    Encoding settings           : cabac=1 / ref=5 / deblock=1:-1:-1 / analyse=0x3:0x113 / me=umh / subme=7 / psy=1 / psy_rd=1.00:0.15 / mixed_ref=1 / me_range=16 / chroma_me=1 / trellis=1 / 8x8dct=1 / cqm=0 / deadzone=21,11 / fast_pskip=0 / chroma_qp_offset=-3 / threads=18 / sliced_threads=0 / nr=0 / decimate=1 / interlaced=0 / bluray_compat=0 / constrained_intra=0 / bframes=3 / b_pyramid=2 / b_adapt=1 / b_bias=0 / direct=1 / weightb=1 / open_gop=0 / weightp=2 / keyint=250 / keyint_min=25 / scenecut=40 / intra_refresh=0 / rc_lookahead=40 / rc=crf / mbtree=1 / crf=20.0 / qcomp=0.60 / qpmin=0 / qpmax=69 / qpstep=4 / ip_ratio=1.40 / aq=1:1.00
    Default                     : Yes
    Forced                      : Yes

    Audio #1
    ID                          : 2
    Format                      : AC-3
    Format/Info                 : Audio Coding 3
    Commercial name             : Dolby Digital
    Codec ID                    : A_AC3
    Duration                    : 1 h 38 min
    Bit rate mode               : Constant
    Bit rate                    : 256 kb/s
    Channel(s)                  : 2 channels
    Channel layout              : L R
    Sampling rate               : 48.0 kHz
    Frame rate                  : 31.250 FPS (1536 SPF)
    Compression mode            : Lossy
    Stream size                 : 180 MiB (4%)
    Title                       : Español Latino [CinemaniaHDD]
    Language                    : Spanish
    Service kind                : Complete Main
    Default                     : Yes
    Forced                      : Yes

    Audio #2
    ID                          : 3
    Format                      : AC-3
    Format/Info                 : Audio Coding 3
    Commercial name             : Dolby Digital
    Codec ID                    : A_AC3
    Duration                    : 1 h 38 min
    Bit rate mode               : Constant
    Bit rate                    : 448 kb/s
    Channel(s)                  : 6 channels
    Channel layout              : L R C LFE Ls Rs
    Sampling rate               : 48.0 kHz
    Frame rate                  : 31.250 FPS (1536 SPF)
    Compression mode            : Lossy
    Stream size                 : 315 MiB (7%)
    Title                       : Ingles [CinemaniaHDD]
    Language                    : English
    Service kind                : Complete Main
    Default                     : No
    Forced                      : No

    Text #1
    ID                          : 4
    Format                      : UTF-8
    Codec ID                    : S_TEXT/UTF8
    Codec ID/Info               : UTF-8 Plain Text
    Duration                    : 2 s 240 ms
    Bit rate                    : 60 b/s
    Count of elements           : 1
    Stream size                 : 17.0 Bytes (0%)
    Title                       : Forzados-SRT [CinemaniaHDD]
    Language                    : Spanish
    Default                     : Yes
    Forced                      : Yes

    Text #2
    ID                          : 5
    Format                      : UTF-8
    Codec ID                    : S_TEXT/UTF8
    Codec ID/Info               : UTF-8 Plain Text
    Duration                    : 1 h 30 min
    Bit rate                    : 52 b/s
    Count of elements           : 1100
    Stream size                 : 34.8 KiB (0%)
    Title                       : Español-SRT [CinemaniaHDD]
    Language                    : Spanish
    Default                     : No
    Forced                      : No

    Text #3
    ID                          : 6
    Format                      : UTF-8
    Codec ID                    : S_TEXT/UTF8
    Codec ID/Info               : UTF-8 Plain Text
    Duration                    : 1 h 35 min
    Bit rate                    : 51 b/s
    Count of elements           : 1002
    Stream size                 : 36.3 KiB (0%)
    Title                       : Ingles-SRT [CinemaniaHDD]
    Language                    : English
    Default                     : No
    Forced                      : No

    Menu
    00:00:00.000                : 00:00:00.000
    00:08:20.960                : 00:08:20.960
    00:15:54.440                : 00:15:54.440
    00:22:40.960                : 00:22:40.960
    00:31:26.840                : 00:31:26.840
    00:37:21.800                : 00:37:21.800
    00:41:16.120                : 00:41:16.120
    00:47:21.080                : 00:47:21.080
    00:54:05.200                : 00:54:05.200
    01:01:05.720                : 01:01:05.720
    01:08:14.560                : 01:08:14.560
    01:16:28.080                : 01:16:28.080
    01:20:59.280                : 01:20:59.280
    01:26:24.920                : 01:26:24.920
    01:31:40.360                : 01:31:40.360
    01:33:12.400                : 01:33:12.400

  • Peso: 4.30 GiB

Sinopsis

Descargar Rostros robados (2011) 1080p Latino-CMHDD. Un asesino en serie tiene atemorizada a la ciudad. Una espectadora inocente presencia su último ataque, pero al huir cae de un puente quedando inconsciente. Cuando despierte en el hospital, no puede reconocer a su propia familia, ni a su novio, ni siquiera su propio reflejo en el espejo. Se le acaba diagnosticando prosopagnosia, un desorden neurológico real causado por una lesión en el lóbulo temporal que impide comparar la cara que estamos viendo con otra cara almacenada en la memoria, con lo que ella es incapaz de reconocer la misma cara dos veces, cada vez que mira a alguien es como si fuera nuevo para ella. Pero ella es la única testigo y el asesino está al acecho.

Ficha técnica

Video trailer de la película

Enlaces de descarga

Rip de Bluray

Descargar Rostros robados (2011) 1080p Latino-CMHDD




Aportes de DPeliculasHDmega la pass es:dpeliculashdmega.org Aportes de CinemaniaHD la pass es:cinemaniahdd.com Aportes recientes:cinemaniahdd.net
Guardado en : Crimen , HD 1080p , Suspenso

Películas relacionadas

descargar Rostros robados (2011) 1080p Latino-CMHDD 1080p 1080p gratis, Rostros robados (2011) 1080p Latino-CMHDD 1080p mega 1 link, Rostros robados (2011) 1080p Latino-CMHDD 1080p pelicula completa, descargar Rostros robados (2011) 1080p Latino-CMHDD 1080p gratis en mega.

Rostros robados (2011) 1080p Latino-CMHDD pelicula full hd, Rostros robados (2011) 1080p Latino-CMHDD mega latino, Rostros robados (2011) 1080p Latino-CMHDD 4k latino, Rostros robados (2011) 1080p Latino-CMHDD pelicula completa, Rostros robados (2011) 1080p Latino-CMHDD descargar gratis, descargar Rostros robados (2011) 1080p Latino-CMHDD pelicula latino, Rostros robados (2011) 1080p Latino-CMHDD 1 link mega, Rostros robados (2011) 1080p Latino-CMHDD 1 link google drive, Rostros robados (2011) 1080p Latino-CMHDD hd 1080p latino.
Comentarios 0