×

¿Problemas para descargar con Mozilla, EDGE? Deshabilita la opción "Abrir vinculos en una pestaña nueva" tal como lo muestra ésta imagen.

Fabricantes de ovnis (2024) Temporada 1 WEB-DL 1080p Latino

24 vistas

Información de Fabricantes de ovnis (2024) Temporada 1 WEB-DL 1080p Latino

Datos de la película

  • Calidad: WEBDL
  • Audio: Se especifica abajo de la Sinopsis
  • Subtitulos: Español Latino SRT - Ingles SRT
  • Resolución: 1920x1080p
  • Formato: MKV
  • Codec: H.264
  • Encoder: Melkor
  • Mediainfo: Clic para Mostrar Datos Ver
  • Fabricantes De Ovnis S01E01 (2024) WEB 1080p Latino.mkv
    Format                      : Matroska
    Format version              : Version 4
    File size                   : 1.29 GiB
    Duration                    : 26 min 48 s
    Overall bit rate mode       : Variable
    Overall bit rate            : 6 900 kb/s
    Movie name                  : CinemaniaHDD.Net
    Encoded date                : UTC 2024-04-04 04:55:22
    Writing application         : mkvmerge v56.1.0 ('My Friend') 64-bit
    Writing library             : libebml v1.4.2 + libmatroska v1.6.4
    Attachments                 : CINEMANIAHD.png
    Site                        : CinemaniaHDD.Net
    Uploader                    : Melkor

    Video
    ID                          : 1
    Format                      : AVC
    Format/Info                 : Advanced Video Codec
    Format profile              : High@L4
    Format settings             : CABAC / 4 Ref Frames
    Format settings, CABAC      : Yes
    Format settings, Reference  : 4 frames
    Codec ID                    : V_MPEG4/ISO/AVC
    Duration                    : 26 min 48 s
    Bit rate mode               : Variable
    Bit rate                    : 6 642 kb/s
    Maximum bit rate            : 12.7 Mb/s
    Width                       : 1 920 pixels
    Height                      : 1 080 pixels
    Display aspect ratio        : 16:9
    Frame rate mode             : Constant
    Frame rate                  : 23.976 (24000/1001) FPS
    Color space                 : YUV
    Chroma subsampling          : 4:2:0
    Bit depth                   : 8 bits
    Scan type                   : Progressive
    Bits/(Pixel*Frame)          : 0.134
    Stream size                 : 1.24 GiB (96%)
    Title                       : WEB HD1080p [CinemaniaHDD]
    Default                     : Yes
    Forced                      : Yes
    Color range                 : Limited
    Color primaries             : BT.709
    Transfer characteristics    : BT.709
    Matrix coefficients         : BT.709

    Audio
    ID                          : 2
    Format                      : E-AC-3
    Format/Info                 : Enhanced AC-3
    Commercial name             : Dolby Digital Plus
    Codec ID                    : A_EAC3
    Duration                    : 26 min 48 s
    Bit rate mode               : Constant
    Bit rate                    : 256 kb/s
    Channel(s)                  : 6 channels
    Channel layout              : L R C LFE Ls Rs
    Sampling rate               : 48.0 kHz
    Frame rate                  : 31.250 FPS (1536 SPF)
    Compression mode            : Lossy
    Stream size                 : 49.1 MiB (4%)
    Title                       : Español Latino [CinemaniaHDD]
    Language                    : Spanish
    Service kind                : Complete Main
    Default                     : Yes
    Forced                      : Yes

    Text #1
    ID                          : 3
    Format                      : UTF-8
    Codec ID                    : S_TEXT/UTF8
    Codec ID/Info               : UTF-8 Plain Text
    Duration                    : 26 min 12 s
    Bit rate                    : 81 b/s
    Count of elements           : 459
    Stream size                 : 15.7 KiB (0%)
    Title                       : Español-SRT [CinemaniaHDD]
    Language                    : Spanish
    Default                     : No
    Forced                      : No

    Text #2
    ID                          : 4
    Format                      : UTF-8
    Codec ID                    : S_TEXT/UTF8
    Codec ID/Info               : UTF-8 Plain Text
    Duration                    : 26 min 42 s
    Bit rate                    : 72 b/s
    Count of elements           : 470
    Stream size                 : 14.3 KiB (0%)
    Title                       : Ingles-SRT [CinemaniaHDD]
    Language                    : English
    Default                     : No
    Forced                      : No

  • Peso: 1.2 GiB -- 11.9 GiB -- 10 Chapters

Sinopsis

Descargar Fabricantes de ovnis (2024) Temporada 1 WEB-DL 1080p Latino. Sigue a Dalí, un mesero que trabaja para un fanático que cree en la vida extraterrestre y, a raíz de un llamado, regresa a Ogarrio del Cobre, el viejo y abandonado pueblo minero donde vivieron su padre y su abuelo, para cobrar una herencia que supone le solucionará la vida.

Español Latino [EAC3 5.1 D+] 

Ficha técnica

  • Titulo original: Fabricante de ovnis
  • Fecha de lanzamiento: 03-04-2024 (AR, MX)
  • Género: Comedia, Series

Video trailer de la película

Enlaces de descarga

Rip de Bluray

Descargar Fabricantes de ovnis (2024) Temporada 1 WEB-DL 1080p Latino




Aportes de DPeliculasHDmega la pass es:dpeliculashdmega.org Aportes de CinemaniaHD la pass es:cinemaniahdd.com Aportes recientes:cinemaniahdd.net
Guardado en : Comedia , Series

Películas relacionadas

  • iZombie (2016) Temporada 02 Full HD 1080p Latino

    iZombie (2016) Temporada 02 Full HD 1080p Latino

    2015
    iZombie (2016) Temporada 02 Full HD 1080p Latino

    0h 42m 2015

    Descargar iZombie (2016) Temporada 02 Full HD 1080p Latino. Gira en torno a una estudiante de medicina...

    Director: Rob Thomas

    Género: Crimen

    Actores: Rose McIver

  • iZombie (2016) Temporada 02 REMUX 1080p Latino

    iZombie (2016) Temporada 02 REMUX 1080p Latino

    2015
    iZombie (2016) Temporada 02 REMUX 1080p Latino

    0h 42m 2015

    Descargar iZombie (2016) Temporada 02 REMUX 1080p Latino. Gira en torno a una estudiante de medicina...

    Director: Rob Thomas

    Género: Crimen

    Actores: Rose McIver

  • iZombie (2015) Temporada 01 Full HD 1080p Latino

    iZombie (2015) Temporada 01 Full HD 1080p Latino

    2015
    iZombie (2015) Temporada 01 Full HD 1080p Latino

    0h 42m 2015

    Descargar iZombie (2015) Temporada 01 Full HD 1080p Latino. Gira en torno a una estudiante de medicina...

    Director: Rob Thomas

    Género: Crimen

    Actores: Rose McIver

  • iZombie (2015) Temporada 01 REMUX 1080p Latino

    iZombie (2015) Temporada 01 REMUX 1080p Latino

    2015
    iZombie (2015) Temporada 01 REMUX 1080p Latino

    0h 42m 2015

    Descargar iZombie (2015) Temporada 01 REMUX 1080p Latino. Gira en torno a una estudiante de medicina...

    Director: Rob Thomas

    Género: Crimen

    Actores: Rose McIver

descargar Fabricantes de ovnis (2024) Temporada 1 WEB-DL 1080p Latino WEBDL 1080p gratis, Fabricantes de ovnis (2024) Temporada 1 WEB-DL 1080p Latino WEBDL mega 1 link, Fabricantes de ovnis (2024) Temporada 1 WEB-DL 1080p Latino WEBDL serie completa, descargar Fabricantes de ovnis (2024) Temporada 1 WEB-DL 1080p Latino WEBDL gratis en mega.

Fabricantes de ovnis (2024) Temporada 1 WEB-DL 1080p Latino pelicula full hd, Fabricantes de ovnis (2024) Temporada 1 WEB-DL 1080p Latino mega latino, Fabricantes de ovnis (2024) Temporada 1 WEB-DL 1080p Latino 4k latino, Fabricantes de ovnis (2024) Temporada 1 WEB-DL 1080p Latino pelicula completa, Fabricantes de ovnis (2024) Temporada 1 WEB-DL 1080p Latino descargar gratis, descargar Fabricantes de ovnis (2024) Temporada 1 WEB-DL 1080p Latino pelicula latino, Fabricantes de ovnis (2024) Temporada 1 WEB-DL 1080p Latino 1 link mega, Fabricantes de ovnis (2024) Temporada 1 WEB-DL 1080p Latino 1 link google drive, Fabricantes de ovnis (2024) Temporada 1 WEB-DL 1080p Latino hd 1080p latino.
Comentarios 0