×

¿Problemas para descargar con Mozilla, EDGE? Deshabilita la opción "Abrir vinculos en una pestaña nueva" tal como lo muestra ésta imagen.

Eyes Wide Shut (1999) REMUX 1080p Latino – CMHDD

12 vistas

Información de Eyes Wide Shut (1999) REMUX 1080p Latino – CMHDD

Datos de la película

  • Calidad: Full 1080p
  • Audio: Español Latino AC3 5.1 WEB-DL - Ingles AC3 5.1 WEB-DL
  • Subtitulos: Español Latino PGS
  • Resolución: 19201080p
  • Formato:
  • Codec: H.264
  • Encoder: Dracarys
  • Mediainfo: Clic para Mostrar Datos Ver
  • Format                      : Matroska
    Format version              : Version 4
    File size                   : 20.0 GiB
    Duration                    : 2 h 39 min
    Overall bit rate            : 18.0 Mb/s
    Movie name                  : Eyes Wide Shut (1999) REMUX 1080p Latino - CMHDD
    Encoded date                : UTC 2024-07-07 17:56:35
    Writing application         : mkvmerge v47.0.0 ('Black Flag') 64-bit
    Writing library             : libebml v1.3.10 + libmatroska v1.5.2

    Video
    ID                          : 1
    Format                      : VC-1
    Format profile              : Advanced@L3
    Codec ID                    : V_MS/VFW/FOURCC / WVC1
    Codec ID/Hint               : Microsoft
    Duration                    : 2 h 39 min
    Bit rate                    : 17.2 Mb/s
    Width                       : 1 920 pixels
    Height                      : 1 080 pixels
    Display aspect ratio        : 16:9
    Frame rate mode             : Constant
    Frame rate                  : 23.976 (24000/1001) FPS
    Color space                 : YUV
    Chroma subsampling          : 4:2:0
    Bit depth                   : 8 bits
    Scan type                   : Progressive
    Compression mode            : Lossy
    Bits/(Pixel*Frame)          : 0.346
    Stream size                 : 19.1 GiB (96%)
    Default                     : Yes
    Forced                      : No

    Audio #1
    ID                          : 2
    Format                      : AC-3
    Format/Info                 : Audio Coding 3
    Commercial name             : Dolby Digital
    Codec ID                    : A_AC3
    Duration                    : 2 h 39 min
    Bit rate mode               : Constant
    Bit rate                    : 256 kb/s
    Channel(s)                  : 6 channels
    Channel layout              : L R C LFE Ls Rs
    Sampling rate               : 48.0 kHz
    Frame rate                  : 31.250 FPS (1536 SPF)
    Compression mode            : Lossy
    Stream size                 : 291 MiB (1%)
    Language                    : Spanish
    Service kind                : Complete Main
    Default                     : Yes
    Forced                      : No

    Audio #2
    ID                          : 3
    Format                      : AC-3
    Format/Info                 : Audio Coding 3
    Commercial name             : Dolby Digital
    Codec ID                    : A_AC3
    Duration                    : 2 h 39 min
    Bit rate mode               : Constant
    Bit rate                    : 256 kb/s
    Channel(s)                  : 6 channels
    Channel layout              : L R C LFE Ls Rs
    Sampling rate               : 48.0 kHz
    Frame rate                  : 31.250 FPS (1536 SPF)
    Compression mode            : Lossy
    Stream size                 : 291 MiB (1%)
    Language                    : English
    Service kind                : Complete Main
    Default                     : No
    Forced                      : No

    Audio #3
    ID                          : 4
    Format                      : AC-3
    Format/Info                 : Audio Coding 3
    Commercial name             : Dolby Digital
    Codec ID                    : A_AC3
    Duration                    : 2 h 39 min
    Bit rate mode               : Constant
    Bit rate                    : 256 kb/s
    Channel(s)                  : 6 channels
    Channel layout              : L R C LFE Ls Rs
    Sampling rate               : 48.0 kHz
    Frame rate                  : 31.250 FPS (1536 SPF)
    Compression mode            : Lossy
    Stream size                 : 291 MiB (1%)
    Language                    : Spanish
    Service kind                : Complete Main
    Default                     : No
    Forced                      : No

    Text #1
    ID                          : 5
    Format                      : PGS
    Muxing mode                 : zlib
    Codec ID                    : S_HDMV/PGS
    Codec ID/Info               : Picture based subtitle format used on BDs/HD-DVDs
    Duration                    : 2 h 37 min
    Bit rate                    : 15.0 kb/s
    Count of elements           : 2636
    Stream size                 : 16.9 MiB (0%)
    Language                    : Spanish
    Default                     : No
    Forced                      : No

    Text #2
    ID                          : 6
    Format                      : PGS
    Muxing mode                 : zlib
    Codec ID                    : S_HDMV/PGS
    Codec ID/Info               : Picture based subtitle format used on BDs/HD-DVDs
    Duration                    : 2 h 37 min
    Bit rate                    : 15.8 kb/s
    Count of elements           : 2591
    Stream size                 : 17.8 MiB (0%)
    Language                    : Latin
    Default                     : No
    Forced                      : No

     

  • Peso: 20.0 GiB

Sinopsis

William Harford es un respetable médico neoyorquino cuya vida parece ir muy bien: está casado con una preciosa mujer, tiene una hija y tiene un trabajo que le gusta. Pero, al día siguiente de asistir a una fiesta, su esposa Alice le habla de unas fantasías eróticas y de cómo estuvo a punto de romper su matrimonio por un desconocido. Abrumado por esta confesión, acaba entrando en un local, donde un antiguo compañero le habla de una congregación secreta dedicada al hedonismo y al placer sin límites. A partir de entonces un mundo dominado por el sexo y el erotismo se abre ante él.

Ficha técnica

Video trailer de la película

Enlaces de descarga

Rip de Bluray

Descargar Eyes Wide Shut (1999) REMUX 1080p Latino – CMHDD




Aportes de DPeliculasHDmega la pass es:dpeliculashdmega.org Aportes de CinemaniaHD la pass es:cinemaniahdd.com Aportes recientes:cinemaniahdd.net
Guardado en : Drama , Misterio , Suspenso

Películas relacionadas

descargar Eyes Wide Shut (1999) REMUX 1080p Latino – CMHDD Full 1080p 1080p gratis, Eyes Wide Shut (1999) REMUX 1080p Latino – CMHDD Full 1080p mega 1 link, Eyes Wide Shut (1999) REMUX 1080p Latino – CMHDD Full 1080p pelicula completa, descargar Eyes Wide Shut (1999) REMUX 1080p Latino – CMHDD Full 1080p gratis en mega.

Eyes Wide Shut (1999) REMUX 1080p Latino – CMHDD pelicula full hd, Eyes Wide Shut (1999) REMUX 1080p Latino – CMHDD mega latino, Eyes Wide Shut (1999) REMUX 1080p Latino – CMHDD 4k latino, Eyes Wide Shut (1999) REMUX 1080p Latino – CMHDD pelicula completa, Eyes Wide Shut (1999) REMUX 1080p Latino – CMHDD descargar gratis, descargar Eyes Wide Shut (1999) REMUX 1080p Latino – CMHDD pelicula latino, Eyes Wide Shut (1999) REMUX 1080p Latino – CMHDD 1 link mega, Eyes Wide Shut (1999) REMUX 1080p Latino – CMHDD 1 link google drive, Eyes Wide Shut (1999) REMUX 1080p Latino – CMHDD hd 1080p latino.
Comentarios 0