×

¿Problemas para descargar con Mozilla, EDGE? Deshabilita la opción "Abrir vinculos en una pestaña nueva" tal como lo muestra ésta imagen.

Soy extraordinaria (2024) Temporada 2 WEB-DL 1080p Latino

119 vistas

Información de Soy extraordinaria (2024) Temporada 2 WEB-DL 1080p Latino

Datos de la película

  • Calidad: WEBDL
  • Audio: Se especifica abajo de la Sinopsis
  • Subtitulos: Español Latino SRT- FORZADOS SRT
  • Resolución: 1920x1080p
  • Formato: MKV
  • Codec: H.264
  • Encoder: Melkor
  • Mediainfo: Clic para Mostrar Datos Ver
  • Extraordinary S02E01 (2024) WEB 1080p Latino.mkv
    Format                      : Matroska
    Format version              : Version 4
    File size                   : 1.49 GiB
    Duration                    : 31 min 32 s
    Overall bit rate mode       : Variable
    Overall bit rate            : 6 779 kb/s
    Movie name                  : Extraordinary S02E01 - The Void CinemaniaHDD.Net
    Encoded date                : UTC 2024-04-04 04:05:42
    Writing application         : mkvmerge v56.1.0 ('My Friend') 64-bit
    Writing library             : libebml v1.4.2 + libmatroska v1.6.4
    Attachments                 : CINEMANIAHD.png
    Site                        : CinemaniaHDD.Net
    Uploader                    : Melkor

    Video
    ID                          : 1
    Format                      : AVC
    Format/Info                 : Advanced Video Codec
    Format profile              : High@L4
    Format settings             : CABAC / 4 Ref Frames
    Format settings, CABAC      : Yes
    Format settings, Reference  : 4 frames
    Codec ID                    : V_MPEG4/ISO/AVC
    Duration                    : 31 min 32 s
    Bit rate mode               : Variable
    Bit rate                    : 6 264 kb/s
    Maximum bit rate            : 12.7 Mb/s
    Width                       : 1 920 pixels
    Height                      : 1 080 pixels
    Display aspect ratio        : 16:9
    Frame rate mode             : Constant
    Frame rate                  : 23.976 (24000/1001) FPS
    Color space                 : YUV
    Chroma subsampling          : 4:2:0
    Bit depth                   : 8 bits
    Scan type                   : Progressive
    Bits/(Pixel*Frame)          : 0.126
    Stream size                 : 1.38 GiB (92%)
    Title                       : WEB HD1080p [CinemaniaHDD]
    Default                     : Yes
    Forced                      : No
    Color range                 : Limited
    Color primaries             : BT.709
    Transfer characteristics    : BT.709
    Matrix coefficients         : BT.709

    Audio #1
    ID                          : 2
    Format                      : E-AC-3
    Format/Info                 : Enhanced AC-3
    Commercial name             : Dolby Digital Plus
    Codec ID                    : A_EAC3
    Duration                    : 31 min 32 s
    Bit rate mode               : Constant
    Bit rate                    : 256 kb/s
    Channel(s)                  : 6 channels
    Channel layout              : L R C LFE Ls Rs
    Sampling rate               : 48.0 kHz
    Frame rate                  : 31.250 FPS (1536 SPF)
    Compression mode            : Lossy
    Stream size                 : 57.8 MiB (4%)
    Title                       : Español Latino [CinemaniaHDD]
    Language                    : Spanish
    Service kind                : Complete Main
    Default                     : Yes
    Forced                      : No

    Audio #2
    ID                          : 3
    Format                      : E-AC-3
    Format/Info                 : Enhanced AC-3
    Commercial name             : Dolby Digital Plus
    Codec ID                    : A_EAC3
    Duration                    : 31 min 32 s
    Bit rate mode               : Constant
    Bit rate                    : 256 kb/s
    Channel(s)                  : 6 channels
    Channel layout              : L R C LFE Ls Rs
    Sampling rate               : 48.0 kHz
    Frame rate                  : 31.250 FPS (1536 SPF)
    Compression mode            : Lossy
    Stream size                 : 57.8 MiB (4%)
    Title                       : Ingles [CinemaniaHDD]
    Language                    : English
    Service kind                : Complete Main
    Default                     : No
    Forced                      : No

    Text #1
    ID                          : 4
    Format                      : UTF-8
    Codec ID                    : S_TEXT/UTF8
    Codec ID/Info               : UTF-8 Plain Text
    Duration                    : 30 min 13 s
    Bit rate                    : 1 b/s
    Count of elements           : 13
    Stream size                 : 346 Bytes (0%)
    Title                       : Forzados-SRT [CinemaniaHDD]
    Language                    : Spanish
    Default                     : Yes
    Forced                      : Yes

    Text #2
    ID                          : 5
    Format                      : UTF-8
    Codec ID                    : S_TEXT/UTF8
    Codec ID/Info               : UTF-8 Plain Text
    Duration                    : 31 min 16 s
    Bit rate                    : 62 b/s
    Count of elements           : 462
    Stream size                 : 14.3 KiB (0%)
    Title                       : Español-SRT [CinemaniaHDD]
    Language                    : Spanish
    Default                     : No
    Forced                      : No

    Text #3
    ID                          : 6
    Format                      : UTF-8
    Codec ID                    : S_TEXT/UTF8
    Codec ID/Info               : UTF-8 Plain Text
    Duration                    : 31 min 22 s
    Bit rate                    : 91 b/s
    Count of elements           : 605
    Stream size                 : 21.0 KiB (0%)
    Title                       : Ingles-SRT [CinemaniaHDD]
    Language                    : English
    Default                     : No
    Forced                      : No

  • Peso: 1.2 GiB -- 10.6 GiB -- 8 Chapters

Sinopsis

Descargar Soy extraordinaria (2024) Temporada 2 WEB-DL 1080p Latino. Bienvenidos a un mundo en el que todos los mayores de 18 años desarrollan un superpoder. Todo el mundo excepto Jen, de 25 años, que se siente abandonada. Por suerte, los compañeros de departamento de Jen: Carrie, Kash y un vagabundo, evitan que caiga en un pozo de autocompasión. A la deriva en un mundo grande y confuso, y con un poco de esperanza y mucha desesperación, Jen comienza su viaje para encontrar su superpoder. Pero al hacerlo, podría descubrir la alegría de estar simplemente bien.

Español Latino – Ingles [EAC3 5.1 D+] 

Ficha técnica

Video trailer de la película

Enlaces de descarga

Rip de Bluray

Descargar Soy extraordinaria (2024) Temporada 2 WEB-DL 1080p Latino




Aportes de DPeliculasHDmega la pass es:dpeliculashdmega.org Aportes de CinemaniaHD la pass es:cinemaniahdd.com Aportes recientes:cinemaniahdd.net
Guardado en : Action & Adventure , Comedia , Series

Películas relacionadas

  • Find Me Falling (2024) NF WEB-DL 1080p Latino

    Find Me Falling (2024) NF WEB-DL 1080p Latino

    2024
    Find Me Falling (2024) NF WEB-DL 1080p Latino

    0h 0m 2024

    Descargar Find Me Falling (2024) NF WEB-DL 1080p Latino. Tras el fracaso del disco con el que pensaba...

    Director: Stelana Kliris

    Género: Comedia

    Actores: Yiola Klitou

  • Goyo (2024) NF WEB-DL 1080p Latino

    Goyo (2024) NF WEB-DL 1080p Latino

    2024
    Goyo (2024) NF WEB-DL 1080p Latino

    1h 47m 2024

    Descargar Goyo (2024) NF WEB-DL 1080p Latino. Goyo es un hombre con Asperger, fanático de Van Gogh,...

    Director: Pablo Discianni

    Género: Comedia

    Actores: Walter Fabian Andrade

  • Cobra Kai (2024) Temporada 6 NF WEB-DL 1080p Latino

    Cobra Kai (2024) Temporada 6 NF WEB-DL 1080p Latino

    2018
    Cobra Kai (2024) Temporada 6 NF WEB-DL 1080p Latino

    0h 0m 2018

    Descargar Cobra Kai (2024) Temporada 6 NF WEB-DL 1080p Latino. Cobra Kai tiene lugar treinta y cuatro...

    Director: Josh Heald

    Género: Action & Adventure

    Actores: Xolo Mariduena

descargar Soy extraordinaria (2024) Temporada 2 WEB-DL 1080p Latino WEBDL 1080p gratis, Soy extraordinaria (2024) Temporada 2 WEB-DL 1080p Latino WEBDL mega 1 link, Soy extraordinaria (2024) Temporada 2 WEB-DL 1080p Latino WEBDL serie completa, descargar Soy extraordinaria (2024) Temporada 2 WEB-DL 1080p Latino WEBDL gratis en mega.

Soy extraordinaria (2024) Temporada 2 WEB-DL 1080p Latino pelicula full hd, Soy extraordinaria (2024) Temporada 2 WEB-DL 1080p Latino mega latino, Soy extraordinaria (2024) Temporada 2 WEB-DL 1080p Latino 4k latino, Soy extraordinaria (2024) Temporada 2 WEB-DL 1080p Latino pelicula completa, Soy extraordinaria (2024) Temporada 2 WEB-DL 1080p Latino descargar gratis, descargar Soy extraordinaria (2024) Temporada 2 WEB-DL 1080p Latino pelicula latino, Soy extraordinaria (2024) Temporada 2 WEB-DL 1080p Latino 1 link mega, Soy extraordinaria (2024) Temporada 2 WEB-DL 1080p Latino 1 link google drive, Soy extraordinaria (2024) Temporada 2 WEB-DL 1080p Latino hd 1080p latino.
Comentarios 0