×

¿Problemas para descargar con Mozilla, EDGE? Deshabilita la opción "Abrir vinculos en una pestaña nueva" tal como lo muestra ésta imagen.

Extraño pero cierto (2019) REMUX 1080p Latino

255 vistas

Información de Extraño pero cierto (2019) REMUX 1080p Latino

Datos de la película

  • Calidad: Full 1080p
  • Audio: Se especifica abajo de la Sinopsis
  • Subtitulos: Español Latino PGS - Ingles PGS
  • Resolución: 1920x1080p
  • Formato: MKV
  • Codec: H.264
  • Encoder: Melkor
  • Mediainfo: Clic para Mostrar Datos Ver
  • Extraño Pero Cierto (2019) REMUX 1080p Latino.mkv
    Format                      : Matroska
    Format version              : Version 4
    File size                   : 18.5 GiB
    Duration                    : 1 h 35 min
    Overall bit rate mode       : Variable
    Overall bit rate            : 27.6 Mb/s
    Movie name                  : Strange But True (2019) CinemaniaHDD.Net
    Encoded date                : UTC 2021-01-25 04:43:27
    Writing application         : mkvmerge v51.0.0 ('I Wish') 64-bit
    Writing library             : libebml v1.4.0 + libmatroska v1.6.2
    Attachments                 : CINEMANIAHD.png

    Video
    ID                          : 1
    Format                      : AVC
    Format/Info                 : Advanced Video Codec
    Format profile              : High@L4.1
    Format settings             : CABAC / 4 Ref Frames
    Format settings, CABAC      : Yes
    Format settings, Reference  : 4 frames
    Codec ID                    : V_MPEG4/ISO/AVC
    Duration                    : 1 h 35 min
    Bit rate mode               : Variable
    Bit rate                    : 23.9 Mb/s
    Maximum bit rate            : 37.0 Mb/s
    Width                       : 1 920 pixels
    Height                      : 1 080 pixels
    Display aspect ratio        : 16:9
    Frame rate mode             : Constant
    Frame rate                  : 23.976 (24000/1001) FPS
    Color space                 : YUV
    Chroma subsampling          : 4:2:0
    Bit depth                   : 8 bits
    Scan type                   : Progressive
    Bits/(Pixel*Frame)          : 0.481
    Stream size                 : 16.0 GiB (87%)
    Title                       : REMUX HD1080p [CinemaniaHDD]
    Language                    : English
    Default                     : Yes
    Forced                      : No

    Audio #1
    ID                          : 2
    Format                      : AC-3
    Format/Info                 : Audio Coding 3
    Commercial name             : Dolby Digital
    Codec ID                    : A_AC3
    Duration                    : 1 h 35 min
    Bit rate mode               : Constant
    Bit rate                    : 256 kb/s
    Channel(s)                  : 2 channels
    Channel layout              : L R
    Sampling rate               : 48.0 kHz
    Frame rate                  : 31.250 FPS (1536 SPF)
    Compression mode            : Lossy
    Stream size                 : 175 MiB (1%)
    Title                       : Español Latino [CinemaniaHDD]
    Language                    : Spanish
    Service kind                : Complete Main
    Default                     : Yes
    Forced                      : No

    Audio #2
    ID                          : 3
    Format                      : DTS XLL
    Format/Info                 : Digital Theater Systems
    Commercial name             : DTS-HD Master Audio
    Codec ID                    : A_DTS
    Duration                    : 1 h 35 min
    Bit rate mode               : Variable
    Bit rate                    : 3 423 kb/s
    Channel(s)                  : 6 channels
    Channel layout              : C L R Ls Rs LFE
    Sampling rate               : 48.0 kHz
    Frame rate                  : 93.750 FPS (512 SPF)
    Bit depth                   : 24 bits
    Compression mode            : Lossless
    Stream size                 : 2.29 GiB (12%)
    Title                       : Ingles [CinemaniaHDD]
    Language                    : English
    Default                     : No
    Forced                      : No

    Text #1
    ID                          : 4
    Format                      : PGS
    Muxing mode                 : zlib
    Codec ID                    : S_HDMV/PGS
    Codec ID/Info               : Picture based subtitle format used on BDs/HD-DVDs
    Duration                    : 1 h 30 min
    Bit rate                    : 33.1 kb/s
    Count of elements           : 2164
    Stream size                 : 21.3 MiB (0%)
    Title                       : Español-PGS [CinemaniaHDD]
    Language                    : Spanish
    Default                     : No
    Forced                      : No

    Text #2
    ID                          : 5
    Format                      : PGS
    Muxing mode                 : zlib
    Codec ID                    : S_HDMV/PGS
    Codec ID/Info               : Picture based subtitle format used on BDs/HD-DVDs
    Duration                    : 1 h 30 min
    Bit rate                    : 38.4 kb/s
    Count of elements           : 2480
    Stream size                 : 24.7 MiB (0%)
    Title                       : Ingles-PGS [CinemaniaHDD]
    Language                    : Spanish
    Default                     : No
    Forced                      : No

    Text #3
    ID                          : 6
    Format                      : UTF-8
    Codec ID                    : S_TEXT/UTF8
    Codec ID/Info               : UTF-8 Plain Text
    Duration                    : 1 h 30 min
    Bit rate                    : 0 b/s
    Count of elements           : 18
    Stream size                 : 434 Bytes (0%)
    Title                       : Forzados-SRT [CinemaniaHDD]
    Language                    : Spanish
    Default                     : Yes
    Forced                      : No

    Text #4
    ID                          : 7
    Format                      : UTF-8
    Codec ID                    : S_TEXT/UTF8
    Codec ID/Info               : UTF-8 Plain Text
    Duration                    : 1 h 34 min
    Bit rate                    : 42 b/s
    Count of elements           : 1116
    Stream size                 : 29.4 KiB (0%)
    Title                       : Español-SRT [CinemaniaHDD]
    Language                    : Spanish
    Default                     : No
    Forced                      : No

    Menu
    00:00:00.000                : en:Chapter 1
    00:07:01.004                : en:Chapter 2
    00:11:49.834                : en:Chapter 3
    00:17:40.393                : en:Chapter 4
    00:24:23.003                : en:Chapter 5
    00:29:39.361                : en:Chapter 6
    00:35:54.527                : en:Chapter 7
    00:43:15.718                : en:Chapter 8
    00:47:56.415                : en:Chapter 9
    00:53:46.306                : en:Chapter 10
    01:02:07.265                : en:Chapter 11
    01:05:41.271                : en:Chapter 12
    01:15:38.284                : en:Chapter 13
    01:19:51.996                : en:Chapter 14
    01:26:40.612                : en:Chapter 15
    01:29:59.603                : en:Chapter 16

  • Peso: 18.5 GiB

Sinopsis

Descargar Extraño pero cierto (2019) REMUX 1080p Latino. Ronnie Chase muere de forma trágica en la noche del baile del instituto. Su novia, Melissa, sobrevive. Cinco años más tarde, la joven aparece de improviso en la casa de los Chase para contar a los familiares que está embarazada y que Ronnie podría ser el padre. Aunque estos se muestran escépticos con respecto a esa historia, tratan de corroborar la extraña historia de la chica. Ninguno de ellos sospecha la terrorífica verdad que está a punto de salir de la oscuridad.

Español Latino AC3 2.0 WebDL – Ingles DTS-HD 5.1 Bluray

Ficha técnica

Video trailer de la película

Enlaces de descarga

Rip de Bluray

Descargar Extraño pero cierto (2019) REMUX 1080p Latino




Aportes de DPeliculasHDmega la pass es:dpeliculashdmega.org Aportes de CinemaniaHD la pass es:cinemaniahdd.com
Guardado en : Suspenso , Remux

Películas relacionadas

descargar Extraño pero cierto (2019) REMUX 1080p Latino Full 1080p 1080p gratis, Extraño pero cierto (2019) REMUX 1080p Latino Full 1080p mega 1 link, Extraño pero cierto (2019) REMUX 1080p Latino Full 1080p pelicula completa, descargar Extraño pero cierto (2019) REMUX 1080p Latino Full 1080p gratis en mega.

Extraño pero cierto (2019) REMUX 1080p Latino pelicula full hd, Extraño pero cierto (2019) REMUX 1080p Latino mega latino, Extraño pero cierto (2019) REMUX 1080p Latino 4k latino, Extraño pero cierto (2019) REMUX 1080p Latino pelicula completa, Extraño pero cierto (2019) REMUX 1080p Latino descargar gratis, descargar Extraño pero cierto (2019) REMUX 1080p Latino pelicula latino, Extraño pero cierto (2019) REMUX 1080p Latino 1 link mega, Extraño pero cierto (2019) REMUX 1080p Latino 1 link google drive, Extraño pero cierto (2019) REMUX 1080p Latino hd 1080p latino.
Comentarios 0