Exorcismo En El Séptimo día (2021) PLACEBO Full HD 1080p Latino

56 vistas
1 estrella2 estrellas3 estrellas4 estrellas5 estrellas (Ninguna valoración todavía)
Cargando...

Información de Exorcismo En El Séptimo día (2021) PLACEBO Full HD 1080p Latino

Datos de la película

  • Calidad: Full 1080p
  • Audio: Se especifica abajo de la Sinopsis
  • Subtitulos: Español Latino SRT- FORZADOS SRT
  • Resolución: 1920x1080p
  • Formato: MKV
  • Codec: H.264
  • Encoder: Melkor
  • Mediainfo: Clic para Mostrar Datos Ver
  • Exorcismo En El Septimo Dia (2021) PLACEBO 1080p Latino.mkv
    Format                      : Matroska
    Format version              : Version 4
    File size                   : 5.35 GiB
    Duration                    : 1 h 27 min
    Overall bit rate            : 8 743 kb/s
    Movie name                  : The Seventh Day (2021) CinemaniaHDD.Net
    Encoded date                : UTC 2021-07-23 16:28:48
    Writing application         : mkvmerge v56.1.0 ('My Friend') 64-bit
    Writing library             : libebml v1.4.2 + libmatroska v1.6.4
    Attachments                 : CINEMANIAHD.png

    Video
    ID                          : 1
    Format                      : AVC
    Format/Info                 : Advanced Video Codec
    Format profile              : High@L4.1
    Format settings             : CABAC / 4 Ref Frames
    Format settings, CABAC      : Yes
    Format settings, Reference  : 4 frames
    Codec ID                    : V_MPEG4/ISO/AVC
    Duration                    : 1 h 27 min
    Bit rate                    : 5 954 kb/s
    Width                       : 1 920 pixels
    Height                      : 1 080 pixels
    Display aspect ratio        : 16:9
    Frame rate mode             : Constant
    Frame rate                  : 23.976 (24000/1001) FPS
    Color space                 : YUV
    Chroma subsampling          : 4:2:0
    Bit depth                   : 8 bits
    Scan type                   : Progressive
    Bits/(Pixel*Frame)          : 0.120
    Stream size                 : 3.64 GiB (68%)
    Title                       : Full HD1080p [CinemaniaHDD]
    Writing library             : x264 core 157 r2935 545de2f
    Encoding settings           : cabac=1 / ref=4 / deblock=1:0:0 / analyse=0x3:0x133 / me=tesa / subme=11 / psy=1 / psy_rd=1.00:0.00 / mixed_ref=1 / me_range=24 / chroma_me=1 / trellis=2 / 8x8dct=1 / cqm=0 / deadzone=21,11 / fast_pskip=0 / chroma_qp_offset=-2 / threads=24 / lookahead_threads=6 / sliced_threads=0 / nr=0 / decimate=1 / interlaced=0 / bluray_compat=0 / constrained_intra=0 / bframes=16 / b_pyramid=2 / b_adapt=2 / b_bias=0 / direct=3 / weightb=1 / open_gop=0 / weightp=2 / keyint=240 / keyint_min=24 / scenecut=40 / intra_refresh=0 / rc_lookahead=60 / rc=crf / mbtree=1 / crf=17.0 / qcomp=0.60 / qpmin=0 / qpmax=69 / qpstep=4 / vbv_maxrate=62500 / vbv_bufsize=78125 / crf_max=0.0 / nal_hrd=none / filler=0 / ip_ratio=1.40 / aq=1:1.00
    Default                     : Yes
    Forced                      : Yes
    Color range                 : Limited
    Color primaries             : BT.709
    Transfer characteristics    : BT.709
    Matrix coefficients         : BT.709

    Audio #1
    ID                          : 2
    Format                      : AC-3
    Format/Info                 : Audio Coding 3
    Commercial name             : Dolby Digital
    Codec ID                    : A_AC3
    Duration                    : 1 h 27 min
    Bit rate mode               : Constant
    Bit rate                    : 640 kb/s
    Channel(s)                  : 6 channels
    Channel layout              : L R C LFE Ls Rs
    Sampling rate               : 48.0 kHz
    Frame rate                  : 31.250 FPS (1536 SPF)
    Compression mode            : Lossy
    Stream size                 : 401 MiB (7%)
    Title                       : Español Latino AC3 [CinemaniaHDD]
    Language                    : Spanish
    Service kind                : Complete Main
    Default                     : Yes
    Forced                      : No

    Audio #2
    ID                          : 3
    Format                      : DTS
    Format/Info                 : Digital Theater Systems
    Codec ID                    : A_DTS
    Duration                    : 1 h 27 min
    Bit rate mode               : Constant
    Bit rate                    : 1 509 kb/s
    Channel(s)                  : 6 channels
    Channel layout              : C L R Ls Rs LFE
    Sampling rate               : 48.0 kHz
    Frame rate                  : 93.750 FPS (512 SPF)
    Bit depth                   : 24 bits
    Compression mode            : Lossy
    Stream size                 : 946 MiB (17%)
    Title                       : Ingles [CinemaniaHDD]
    Language                    : English
    Default                     : No
    Forced                      : No

    Audio #3
    ID                          : 4
    Format                      : E-AC-3
    Format/Info                 : Enhanced AC-3
    Commercial name             : Dolby Digital Plus
    Codec ID                    : A_EAC3
    Duration                    : 1 h 27 min
    Bit rate mode               : Constant
    Bit rate                    : 640 kb/s
    Channel(s)                  : 6 channels
    Channel layout              : L R C LFE Ls Rs
    Sampling rate               : 48.0 kHz
    Frame rate                  : 31.250 FPS (1536 SPF)
    Compression mode            : Lossy
    Delay relative to video     : 15 s 946 ms
    Stream size                 : 399 MiB (7%)
    Title                       : Español Latino EAC3 [CinemaniaHDD]
    Language                    : Spanish
    Service kind                : Complete Main
    Default                     : No
    Forced                      : No

    Text #1
    ID                          : 5
    Format                      : UTF-8
    Codec ID                    : S_TEXT/UTF8
    Codec ID/Info               : UTF-8 Plain Text
    Duration                    : 1 h 3 min
    Bit rate                    : 0 b/s
    Count of elements           : 6
    Stream size                 : 205 Bytes (0%)
    Title                       : Forzados-SRT [CinemaniaHDD]
    Language                    : Spanish
    Default                     : Yes
    Forced                      : No

    Text #2
    ID                          : 6
    Format                      : UTF-8
    Codec ID                    : S_TEXT/UTF8
    Codec ID/Info               : UTF-8 Plain Text
    Duration                    : 1 h 21 min
    Bit rate                    : 54 b/s
    Count of elements           : 1037
    Stream size                 : 32.6 KiB (0%)
    Title                       : Español-SRT [CinemaniaHDD]
    Language                    : Spanish
    Default                     : No
    Forced                      : No

    Text #3
    ID                          : 7
    Format                      : UTF-8
    Codec ID                    : S_TEXT/UTF8
    Codec ID/Info               : UTF-8 Plain Text
    Duration                    : 1 h 20 min
    Bit rate                    : 51 b/s
    Count of elements           : 1038
    Stream size                 : 30.2 KiB (0%)
    Title                       : Ingles-SRT [CinemaniaHDD]
    Language                    : English
    Default                     : No
    Forced                      : No

    Menu
    00:00:00.000                : Chapter 01
    00:08:34.931                : Chapter 02
    00:16:33.659                : Chapter 03
    00:25:15.180                : Chapter 04
    00:32:52.637                : Chapter 05
    00:39:37.166                : Chapter 06
    00:46:05.012                : Chapter 07
    00:50:44.791                : Chapter 08
    00:57:03.837                : Chapter 09
    01:03:51.619                : Chapter 10
    01:10:59.421                : Chapter 11
    01:17:50.499                : Chapter 12
    01:23:24.165                : Chapter 13

  • Peso: 5.35 GiB

Sinopsis

Descargar Exorcismo En El Séptimo día (2021) PLACEBO Full HD 1080p Latino. Un reconocido exorcista se reúne con un sacerdote novicio en su primer día de entrenamiento. A medida que descubren el infierno que existe sobre la Tierra, las líneas entre el bien y el mal se distorsionan, dando lugar a que emerjan sus propios demonios.

Español Latino EAC3 & AC3 5.1 WebDL – Ingles DTS 5.1 BD

Ficha técnica

Video trailer de la película

Enlaces de descarga

Rip de Bluray

Descargar Exorcismo En El Séptimo día (2021) PLACEBO Full HD 1080p Latino




Aportes de DPeliculasHDmega la pass es:dpeliculashdmega.org Aportes de CinemaniaHD la pass es:cinemaniahdd.com

Películas relacionadas

  • Panico En Casa (2021) AMZN Web-DL 1080p Latino

    Panico En Casa (2021) AMZN Web-DL 1080p Latino

    2021
    Panico En Casa (2021) AMZN Web-DL 1080p Latino

    0.0 1h 22m 2021

    Descargar Panico En Casa (2021) AMZN Web-DL 1080p Latino. Tras dos años de pandemia, un grupo de amigos...

    Director: Will Wernick

    Género: Suspenso

    Actores: Michael Kupisk

  • Tiburón Blanco (2021) HD 1080p Latino

    Tiburón Blanco (2021) HD 1080p Latino

    2021
    Tiburón Blanco (2021) HD 1080p Latino

    0.0 1h 31m 2021

    Descargar Tiburón Blanco (2021) HD 1080p Latino. Kaz Fellows (Katrina Bowden) y Charlie Brody (Aaron...

    Director: Wade Savage

    Género: HD 1080p

    Actores: Tim Kano

  • Tiburón Blanco (2021) PLACEBO Full HD 1080p Latino

    Tiburón Blanco (2021) PLACEBO Full HD 1080p Latino

    2021
    Tiburón Blanco (2021) PLACEBO Full HD 1080p Latino

    0.0 1h 31m 2021

    Descargar Tiburón Blanco (2021) PLACEBO Full HD 1080p Latino. Kaz Fellows (Katrina Bowden) y Charlie...

    Director: Wade Savage

    Género: FULL 1080p Plateadas

    Actores: Tim Kano

  • Tiburón Blanco (2021) REMUX 1080p Latino

    Tiburón Blanco (2021) REMUX 1080p Latino

    2021
    Tiburón Blanco (2021) REMUX 1080p Latino

    0.0 1h 31m 2021

    Descargar Tiburón Blanco (2021) REMUX 1080p Latino. Kaz Fellows (Katrina Bowden) y Charlie Brody (Aaron...

    Director: Wade Savage

    Género: Remux

    Actores: Tim Kano

Exorcismo En El Séptimo día (2021) PLACEBO Full HD 1080p Latino pelicula full hd, Exorcismo En El Séptimo día (2021) PLACEBO Full HD 1080p Latino mega latino, Exorcismo En El Séptimo día (2021) PLACEBO Full HD 1080p Latino 4k latino, Exorcismo En El Séptimo día (2021) PLACEBO Full HD 1080p Latino pelicula completa, Exorcismo En El Séptimo día (2021) PLACEBO Full HD 1080p Latino descargar gratis, descargar Exorcismo En El Séptimo día (2021) PLACEBO Full HD 1080p Latino pelicula latino, Exorcismo En El Séptimo día (2021) PLACEBO Full HD 1080p Latino 1 link mega, Exorcismo En El Séptimo día (2021) PLACEBO Full HD 1080p Latino 1 link google drive, Exorcismo En El Séptimo día (2021) PLACEBO Full HD 1080p Latino hd 1080p latino.
Comentarios 0