×

¿Problemas para descargar con Mozilla, EDGE? Deshabilita la opción "Abrir vinculos en una pestaña nueva" tal como lo muestra ésta imagen.

Éxodo: Dioses y Reyes (2014) REMUX 1080p Latino

462 vistas

Información de Éxodo: Dioses y Reyes (2014) REMUX 1080p Latino

Datos de la película

  • Calidad: Full 1080p
  • Audio: Español Latino AC3 5.1 BLURAY - Ingles DTS-HD Master 7.1 BLURAY
  • Subtitulos: Español Latino PGS - Ingles PGS
  • Resolución: 1920x1080p
  • Formato: MKV
  • Codec: H.264
  • Encoder: CinefiloCool
  • Mediainfo: Clic para Mostrar Datos Ver
  • Exodo Dioses Y Reyes (2014) REMUX 1080p Latino-CMHDD.mkv
    Format                      : Matroska
    Format version              : Version 4
    File size                   : 34.4 GiB
    Duration                    : 2 h 30 min
    Overall bit rate mode       : Variable
    Overall bit rate            : 32.8 Mb/s
    Movie name                  : Exodus - Gods and Kings (2014) CinemaniaHDD.Net
    Encoded date                : UTC 2022-01-17 07:11:42
    Writing application         : mkvmerge v56.1.0 ('My Friend') 64-bit
    Writing library             : libebml v1.4.2 + libmatroska v1.6.4
    Attachments                 : CINEMANIAHD.png

    Video
    ID                          : 1
    Format                      : AVC
    Format/Info                 : Advanced Video Codec
    Format profile              : High@L4.1
    Format settings             : CABAC / 4 Ref Frames
    Format settings, CABAC      : Yes
    Format settings, Reference  : 4 frames
    Codec ID                    : V_MPEG4/ISO/AVC
    Duration                    : 2 h 30 min
    Bit rate mode               : Variable
    Bit rate                    : 26.8 Mb/s
    Maximum bit rate            : 34.9 Mb/s
    Width                       : 1 920 pixels
    Height                      : 1 080 pixels
    Display aspect ratio        : 16:9
    Frame rate mode             : Constant
    Frame rate                  : 23.976 (24000/1001) FPS
    Color space                 : YUV
    Chroma subsampling          : 4:2:0
    Bit depth                   : 8 bits
    Scan type                   : Progressive
    Bits/(Pixel*Frame)          : 0.539
    Stream size                 : 28.2 GiB (82%)
    Title                       : REMUX HD1080p [CinemaniaHDD]
    Default                     : Yes
    Forced                      : Yes

    Audio #1
    ID                          : 2
    Format                      : AC-3
    Format/Info                 : Audio Coding 3
    Commercial name             : Dolby Digital
    Codec ID                    : A_AC3
    Duration                    : 2 h 30 min
    Bit rate mode               : Constant
    Bit rate                    : 448 kb/s
    Channel(s)                  : 6 channels
    Channel layout              : L R C LFE Ls Rs
    Sampling rate               : 48.0 kHz
    Frame rate                  : 31.250 FPS (1536 SPF)
    Compression mode            : Lossy
    Stream size                 : 482 MiB (1%)
    Title                       : Español Latino [CinemaniaHDD]
    Language                    : Spanish
    Service kind                : Complete Main
    Default                     : Yes
    Forced                      : Yes

    Audio #2
    ID                          : 3
    Format                      : DTS XLL
    Format/Info                 : Digital Theater Systems
    Commercial name             : DTS-HD Master Audio
    Codec ID                    : A_DTS
    Duration                    : 2 h 30 min
    Bit rate mode               : Variable
    Bit rate                    : 5 506 kb/s
    Channel(s)                  : 8 channels
    Channel layout              : C L R LFE Lb Rb Lss Rss
    Sampling rate               : 48.0 kHz
    Frame rate                  : 93.750 FPS (512 SPF)
    Bit depth                   : 24 bits
    Compression mode            : Lossless
    Stream size                 : 5.78 GiB (17%)
    Title                       : Ingles [CinemaniaHDD]
    Language                    : English
    Default                     : No
    Forced                      : No

    Text #1
    ID                          : 4
    Format                      : PGS
    Muxing mode                 : zlib
    Codec ID                    : S_HDMV/PGS
    Codec ID/Info               : Picture based subtitle format used on BDs/HD-DVDs
    Duration                    : 2 h 30 min
    Bit rate                    : 17.8 kb/s
    Count of elements           : 2382
    Stream size                 : 19.1 MiB (0%)
    Title                       : Español-PGS [CinemaniaHDD]
    Language                    : Spanish
    Default                     : No
    Forced                      : No

    Text #2
    ID                          : 5
    Format                      : PGS
    Muxing mode                 : zlib
    Codec ID                    : S_HDMV/PGS
    Codec ID/Info               : Picture based subtitle format used on BDs/HD-DVDs
    Duration                    : 2 h 23 min
    Bit rate                    : 25.5 kb/s
    Count of elements           : 3298
    Stream size                 : 26.2 MiB (0%)
    Title                       : Ingles-PGS [CinemaniaHDD]
    Language                    : English
    Default                     : No
    Forced                      : No

    Text #3
    ID                          : 6
    Format                      : UTF-8
    Codec ID                    : S_TEXT/UTF8
    Codec ID/Info               : UTF-8 Plain Text
    Duration                    : 2 h 21 min
    Bit rate                    : 0 b/s
    Count of elements           : 2
    Stream size                 : 49.0 Bytes (0%)
    Title                       : Forzados-SRT [CinemaniaHDD]
    Language                    : Spanish
    Default                     : Yes
    Forced                      : Yes

    Text #4
    ID                          : 7
    Format                      : UTF-8
    Codec ID                    : S_TEXT/UTF8
    Codec ID/Info               : UTF-8 Plain Text
    Duration                    : 2 h 29 min
    Bit rate                    : 29 b/s
    Count of elements           : 1190
    Stream size                 : 31.7 KiB (0%)
    Title                       : Español-SRT [CinemaniaHDD]
    Language                    : Spanish
    Default                     : No
    Forced                      : No

    Menu
    00:00:00.000                : Chapter 01
    00:03:55.401                : Chapter 02
    00:06:51.994                : Chapter 03
    00:11:47.706                : Chapter 04
    00:14:29.451                : Chapter 05
    00:18:37.658                : Chapter 06
    00:22:15.834                : Chapter 07
    00:26:51.151                : Chapter 08
    00:30:31.287                : Chapter 09
    00:36:41.365                : Chapter 10
    00:40:48.320                : Chapter 11
    00:44:49.937                : Chapter 12
    00:48:47.799                : Chapter 13
    00:51:16.448                : Chapter 14
    00:54:22.217                : Chapter 15
    00:57:32.657                : Chapter 16
    01:00:31.169                : Chapter 17
    01:04:41.544                : Chapter 18
    01:06:49.046                : Chapter 19
    01:11:01.882                : Chapter 20
    01:16:53.692                : Chapter 21
    01:21:18.039                : Chapter 22
    01:24:30.356                : Chapter 23
    01:28:08.533                : Chapter 24
    01:30:54.157                : Chapter 25
    01:34:14.565                : Chapter 26
    01:37:20.543                : Chapter 27
    01:39:20.204                : Chapter 28
    01:42:40.320                : Chapter 29
    01:46:50.070                : Chapter 30
    01:49:02.661                : Chapter 31
    01:52:18.314                : Chapter 32
    01:57:29.876                : Chapter 33
    02:00:23.841                : Chapter 34
    02:05:41.325                : Chapter 35
    02:07:31.268                : Chapter 36
    02:13:38.468                : Chapter 37
    02:16:21.882                : Chapter 38
    02:19:39.996                : Chapter 39
    02:23:19.799                : Chapter 40

  • Peso: 34.4 GiB

Sinopsis

Descargar Éxodo: Dioses y Reyes (2014) REMUX 1080p Latino. Narra la historia de Moisés (Christian Bale), un hombre cuyo coraje desafió a un imperio cuando se rebela contra el todopoderoso faraón Ramsés (Joel Edgerton), liberando a 600.000 esclavos en una épica huida a través de Egipto, llena de peligros y mortíferas plagas, en busca de la Tierra Prometida.

Disponible Solo Para VIP!!! 

Ficha técnica

Video trailer de la película

Enlaces de descarga

Rip de Bluray

Descargar Éxodo: Dioses y Reyes (2014) REMUX 1080p Latino


Aportes de DPeliculasHDmega la pass es:dpeliculashdmega.org Aportes de CinemaniaHD la pass es:cinemaniahdd.com
Guardado en : Acción , Aventura , Drama , Remux

Películas relacionadas

descargar Éxodo: Dioses y Reyes (2014) REMUX 1080p Latino Full 1080p 1080p gratis, Éxodo: Dioses y Reyes (2014) REMUX 1080p Latino Full 1080p mega 1 link, Éxodo: Dioses y Reyes (2014) REMUX 1080p Latino Full 1080p pelicula completa, descargar Éxodo: Dioses y Reyes (2014) REMUX 1080p Latino Full 1080p gratis en mega.

Éxodo: Dioses y Reyes (2014) REMUX 1080p Latino pelicula full hd, Éxodo: Dioses y Reyes (2014) REMUX 1080p Latino mega latino, Éxodo: Dioses y Reyes (2014) REMUX 1080p Latino 4k latino, Éxodo: Dioses y Reyes (2014) REMUX 1080p Latino pelicula completa, Éxodo: Dioses y Reyes (2014) REMUX 1080p Latino descargar gratis, descargar Éxodo: Dioses y Reyes (2014) REMUX 1080p Latino pelicula latino, Éxodo: Dioses y Reyes (2014) REMUX 1080p Latino 1 link mega, Éxodo: Dioses y Reyes (2014) REMUX 1080p Latino 1 link google drive, Éxodo: Dioses y Reyes (2014) REMUX 1080p Latino hd 1080p latino.
Comentarios 0