×

¿Problemas para descargar con Mozilla, EDGE? Deshabilita la opción "Abrir vinculos en una pestaña nueva" tal como lo muestra ésta imagen.

Éxodo: La última marea (2021) REMUX 1080p Latino

30 vistas

Información de Éxodo: La última marea (2021) REMUX 1080p Latino

Datos de la película

  • Calidad: Full 1080p
  • Audio: Español Latino AC3 5.1 WEB-DL - Ingles DTS 5.1 BLURAY
  • Subtitulos: Español Latino SRT- FORZADOS SRT
  • Resolución: 1920x1080p
  • Formato: MKV
  • Codec: H.264
  • Encoder: Melkor
  • Mediainfo: Clic para Mostrar Datos Ver
  • Exodo. La Ultima Marea (2021) REMUX 1080p Latino.mkv
    Format                      : Matroska
    Format version              : Version 4
    File size                   : 25.7 GiB
    Duration                    : 1 h 44 min
    Overall bit rate mode       : Variable
    Overall bit rate            : 35.3 Mb/s
    Movie name                  : Tides [The Colony] (2021) CinemaniaHDD.Net
    Encoded date                : UTC 2022-09-15 01:52:09
    Writing application         : mkvmerge v56.1.0 ('My Friend') 64-bit
    Writing library             : libebml v1.4.2 + libmatroska v1.6.4
    Attachments                 : CINEMANIAHD.png

    Video
    ID                          : 1
    Format                      : AVC
    Format/Info                 : Advanced Video Codec
    Format profile              : High@L4.1
    Format settings             : CABAC / 4 Ref Frames
    Format settings, CABAC      : Yes
    Format settings, Reference  : 4 frames
    Codec ID                    : V_MPEG4/ISO/AVC
    Duration                    : 1 h 44 min
    Bit rate mode               : Variable
    Bit rate                    : 32.1 Mb/s
    Maximum bit rate            : 38.0 Mb/s
    Width                       : 1 920 pixels
    Height                      : 1 080 pixels
    Display aspect ratio        : 16:9
    Frame rate mode             : Constant
    Frame rate                  : 24.000 FPS
    Color space                 : YUV
    Chroma subsampling          : 4:2:0
    Bit depth                   : 8 bits
    Scan type                   : Progressive
    Bits/(Pixel*Frame)          : 0.645
    Stream size                 : 23.4 GiB (91%)
    Title                       : REMUX HD1080p [CinemaniaHDD]
    Default                     : Yes
    Forced                      : Yes

    Audio #1
    ID                          : 2
    Format                      : AC-3
    Format/Info                 : Audio Coding 3
    Commercial name             : Dolby Digital
    Codec ID                    : A_AC3
    Duration                    : 1 h 44 min
    Bit rate mode               : Constant
    Bit rate                    : 448 kb/s
    Channel(s)                  : 6 channels
    Channel layout              : L R C LFE Ls Rs
    Sampling rate               : 48.0 kHz
    Frame rate                  : 31.250 FPS (1536 SPF)
    Compression mode            : Lossy
    Stream size                 : 334 MiB (1%)
    Title                       : Español Latino [CinemaniaHDD]
    Language                    : Spanish
    Service kind                : Complete Main
    Default                     : Yes
    Forced                      : Yes

    Audio #2
    ID                          : 3
    Format                      : DTS XBR
    Format/Info                 : Digital Theater Systems
    Commercial name             : DTS-HD High Resolution Audio
    Codec ID                    : A_DTS
    Duration                    : 1 h 44 min
    Bit rate mode               : Constant
    Bit rate                    : 2 046 kb/s
    Channel(s)                  : 8 channels
    Channel layout              : C L R LFE Lb Rb Lss Rss
    Sampling rate               : 48.0 kHz
    Frame rate                  : 93.750 FPS (512 SPF)
    Bit depth                   : 24 bits
    Compression mode            : Lossy
    Stream size                 : 1.49 GiB (6%)
    Title                       : Ingles [CinemaniaHDD]
    Language                    : English
    Default                     : No
    Forced                      : No

    Text #1
    ID                          : 4
    Format                      : UTF-8
    Codec ID                    : S_TEXT/UTF8
    Codec ID/Info               : UTF-8 Plain Text
    Title                       : Forzados-SRT [CinemaniaHDD]
    Language                    : Spanish
    Default                     : Yes
    Forced                      : Yes

    Text #2
    ID                          : 5
    Format                      : UTF-8
    Codec ID                    : S_TEXT/UTF8
    Codec ID/Info               : UTF-8 Plain Text
    Title                       : Español-SRT [CinemaniaHDD]
    Language                    : Spanish
    Default                     : No
    Forced                      : No

    Text #3
    ID                          : 6
    Format                      : UTF-8
    Codec ID                    : S_TEXT/UTF8
    Codec ID/Info               : UTF-8 Plain Text
    Title                       : Ingles [CinemaniaHDD]
    Language                    : English
    Default                     : No
    Forced                      : No

    Menu
    00:00:00.000                : Chapter 01
    00:05:42.750                : Chapter 02
    00:12:30.500                : Chapter 03
    00:20:06.916                : Chapter 04
    00:27:27.958                : Chapter 05
    00:30:19.916                : Chapter 06
    00:34:58.416                : Chapter 07
    00:42:30.333                : Chapter 08
    00:47:28.750                : Chapter 09
    00:56:47.333                : Chapter 10
    01:04:12.000                : Chapter 11
    01:10:46.333                : Chapter 12
    01:17:03.541                : Chapter 13
    01:25:30.250                : Chapter 14
    01:30:22.291                : Chapter 15
    01:36:18.333                : Chapter 16

  • Peso: 25.7 GiB

Sinopsis

Descargar Éxodo: La última marea (2021) REMUX 1080p Latino. En un futuro no muy lejano, después de que una catástrofe global ha acabado con casi toda la humanidad en la Tierra, una astronauta de élite de la Colonia Espacial Kepler debe tomar una decisión que selle el destino de las personas en ambos planetas.

Ficha técnica

Video trailer de la película

Enlaces de descarga

Rip de Bluray

Descargar Éxodo: La última marea (2021) REMUX 1080p Latino




Aportes de DPeliculasHDmega la pass es:dpeliculashdmega.org Aportes de CinemaniaHD la pass es:cinemaniahdd.com
Guardado en : Ciencia ficción , Remux

Películas relacionadas

descargar Éxodo: La última marea (2021) REMUX 1080p Latino Full 1080p 1080p gratis, Éxodo: La última marea (2021) REMUX 1080p Latino Full 1080p mega 1 link, Éxodo: La última marea (2021) REMUX 1080p Latino Full 1080p pelicula completa, descargar Éxodo: La última marea (2021) REMUX 1080p Latino Full 1080p gratis en mega.

Éxodo: La última marea (2021) REMUX 1080p Latino pelicula full hd, Éxodo: La última marea (2021) REMUX 1080p Latino mega latino, Éxodo: La última marea (2021) REMUX 1080p Latino 4k latino, Éxodo: La última marea (2021) REMUX 1080p Latino pelicula completa, Éxodo: La última marea (2021) REMUX 1080p Latino descargar gratis, descargar Éxodo: La última marea (2021) REMUX 1080p Latino pelicula latino, Éxodo: La última marea (2021) REMUX 1080p Latino 1 link mega, Éxodo: La última marea (2021) REMUX 1080p Latino 1 link google drive, Éxodo: La última marea (2021) REMUX 1080p Latino hd 1080p latino.
Comentarios 0