×

¿Problemas para descargar con Mozilla, EDGE? Deshabilita la opción "Abrir vinculos en una pestaña nueva" tal como lo muestra ésta imagen.

Executive Decision (1996) REMUX 1080p Latino – CMHDD

220 vistas

Información de Executive Decision (1996) REMUX 1080p Latino – CMHDD

Datos de la película

  • Calidad: Full 1080p
  • Audio: Se especifica abajo de la Sinopsis
  • Subtitulos: Español Latino PGS
  • Resolución: 1920x1080p
  • Formato: MKV
  • Codec: H.264
  • Encoder: Dracarys
  • Mediainfo: Clic para Mostrar Datos Ver
  • Format                      : Matroska
    Format version              : Version 4
    File size                   : 32.4 GiB
    Duration                    : 2 h 12 min
    Overall bit rate mode       : Variable
    Overall bit rate            : 35.0 Mb/s
    Movie name                  : Executive Decision (1996) REMUX 1080p Latino - CMHDD
    Encoded date                : UTC 2021-06-15 03:01:42
    Writing application         : mkvmerge v56.1.0 ('My Friend') 64-bit
    Writing library             : libebml v1.4.2 + libmatroska v1.6.4
    Cover                       : Yes
    Attachments                 : cover.jpg

    Video
    ID                          : 1
    ID in the original source m : 4113 (0x1011)
    Format                      : AVC
    Format/Info                 : Advanced Video Codec
    Format profile              : High@L4.1
    Format settings             : CABAC / 2 Ref Frames
    Format settings, CABAC      : Yes
    Format settings, Reference  : 2 frames
    Codec ID                    : V_MPEG4/ISO/AVC
    Duration                    : 2 h 12 min
    Bit rate mode               : Variable
    Bit rate                    : 30.5 Mb/s
    Width                       : 1 920 pixels
    Height                      : 1 080 pixels
    Display aspect ratio        : 16:9
    Frame rate mode             : Constant
    Frame rate                  : 23.976 (24000/1001) FPS
    Color space                 : YUV
    Chroma subsampling          : 4:2:0
    Bit depth                   : 8 bits
    Scan type                   : Progressive
    Bits/(Pixel*Frame)          : 0.614
    Stream size                 : 28.3 GiB (87%)
    Default                     : Yes
    Forced                      : No
    Original source medium      : Blu-ray

    Audio #1
    ID                          : 2
    ID in the original source m : 4352 (0x1100)
    Format                      : DTS XLL
    Format/Info                 : Digital Theater Systems
    Commercial name             : DTS-HD Master Audio
    Codec ID                    : A_DTS
    Duration                    : 2 h 12 min
    Bit rate mode               : Variable
    Bit rate                    : 4 236 kb/s
    Channel(s)                  : 6 channels
    Channel layout              : C L R Ls Rs LFE
    Sampling rate               : 48.0 kHz
    Frame rate                  : 93.750 FPS (512 SPF)
    Bit depth                   : 24 bits
    Compression mode            : Lossless
    Stream size                 : 3.93 GiB (12%)
    Language                    : English
    Default                     : No
    Forced                      : No
    Original source medium      : Blu-ray

    Audio #2
    ID                          : 3
    ID in the original source m : 4356 (0x1104)
    Format                      : AC-3
    Format/Info                 : Audio Coding 3
    Commercial name             : Dolby Digital
    Codec ID                    : A_AC3
    Duration                    : 2 h 12 min
    Bit rate mode               : Constant
    Bit rate                    : 192 kb/s
    Channel(s)                  : 1 channel
    Channel layout              : C
    Sampling rate               : 48.0 kHz
    Frame rate                  : 31.250 FPS (1536 SPF)
    Compression mode            : Lossy
    Stream size                 : 182 MiB (1%)
    Language                    : Spanish
    Service kind                : Complete Main
    Default                     : Yes
    Forced                      : No
    Original source medium      : Blu-ray

    Text #1
    ID                          : 4
    ID in the original source m : 4613 (0x1205)
    Format                      : PGS
    Muxing mode                 : zlib
    Codec ID                    : S_HDMV/PGS
    Codec ID/Info               : Picture based subtitle format used on BDs/HD-DVDs
    Duration                    : 2 h 12 min
    Bit rate                    : 21.5 kb/s
    Count of elements           : 2654
    Stream size                 : 20.4 MiB (0%)
    Language                    : Spanish
    Default                     : No
    Forced                      : No
    Original source medium      : Blu-ray

    Text #2
    ID                          : 5
    ID in the original source m : 4623 (0x120F)
    Format                      : PGS
    Muxing mode                 : zlib
    Codec ID                    : S_HDMV/PGS
    Codec ID/Info               : Picture based subtitle format used on BDs/HD-DVDs
    Duration                    : 2 h 11 min
    Bit rate                    : 714 b/s
    Count of elements           : 62
    Stream size                 : 687 KiB (0%)
    Language                    : Spanish
    Default                     : No
    Forced                      : No
    Original source medium      : Blu-ray

    Menu
    00:00:00.000                : Chapter 01
    00:04:51.666                : Chapter 02
    00:06:45.822                : Chapter 03
    00:10:06.939                : Chapter 04
    00:10:51.609                : Chapter 05
    00:14:42.172                : Chapter 06
    00:16:51.635                : Chapter 07
    00:22:37.230                : Chapter 08
    00:25:40.497                : Chapter 09
    00:32:36.955                : Chapter 10
    00:39:31.035                : Chapter 11
    00:44:33.379                : Chapter 12
    00:49:23.251                : Chapter 13
    00:53:17.611                : Chapter 14
    00:59:28.606                : Chapter 15
    01:03:58.835                : Chapter 16
    01:07:04.395                : Chapter 17
    01:08:10.252                : Chapter 18
    01:10:50.621                : Chapter 19
    01:14:51.236                : Chapter 20
    01:20:16.978                : Chapter 21
    01:22:18.391                : Chapter 22
    01:24:41.117                : Chapter 23
    01:31:11.841                : Chapter 24
    01:34:18.944                : Chapter 25
    01:41:14.401                : Chapter 26
    01:43:28.535                : Chapter 27
    01:46:41.937                : Chapter 28
    01:50:02.679                : Chapter 29
    01:51:12.707                : Chapter 30
    01:52:38.418                : Chapter 31
    01:54:56.890                : Chapter 32
    01:56:51.963                : Chapter 33
    01:58:09.082                : Chapter 34
    02:01:49.802                : Chapter 35
    02:05:22.389                : Chapter 36
    02:08:00.214                : Chapter 37

  • Peso: 32.4 GiB

Sinopsis

Un grupo de terroristas árabes toma el control de un avión de pasajeros en pleno vuelo. Todo induce a pensar que a cambio exigirán la liberación de uno de sus líderes encarcelados. David Grant, un experto del servicio de inteligencia norteamericano, deberá reducir a los terroristas con el apoyo de un comando integrado por diversos especialistas. Grant contará también con la inestimable ayuda de Jean una de las azafatas del vuelo. Un thriller de tensa espera con buenas escenas de acción.

 

Latino: AC3 1.0  –  Ingles: DTS-HD MA 5.1

Ficha técnica

Video trailer de la película

Enlaces de descarga

Rip de Bluray

Descargar Executive Decision (1996) REMUX 1080p Latino – CMHDD


Aportes de DPeliculasHDmega la pass es:dpeliculashdmega.org Aportes de CinemaniaHD la pass es:cinemaniahdd.com
Guardado en : Acción , Aventura , Drama , Suspenso

Películas relacionadas

descargar Executive Decision (1996) REMUX 1080p Latino – CMHDD Full 1080p 1080p gratis, Executive Decision (1996) REMUX 1080p Latino – CMHDD Full 1080p mega 1 link, Executive Decision (1996) REMUX 1080p Latino – CMHDD Full 1080p pelicula completa, descargar Executive Decision (1996) REMUX 1080p Latino – CMHDD Full 1080p gratis en mega.

Executive Decision (1996) REMUX 1080p Latino – CMHDD pelicula full hd, Executive Decision (1996) REMUX 1080p Latino – CMHDD mega latino, Executive Decision (1996) REMUX 1080p Latino – CMHDD 4k latino, Executive Decision (1996) REMUX 1080p Latino – CMHDD pelicula completa, Executive Decision (1996) REMUX 1080p Latino – CMHDD descargar gratis, descargar Executive Decision (1996) REMUX 1080p Latino – CMHDD pelicula latino, Executive Decision (1996) REMUX 1080p Latino – CMHDD 1 link mega, Executive Decision (1996) REMUX 1080p Latino – CMHDD 1 link google drive, Executive Decision (1996) REMUX 1080p Latino – CMHDD hd 1080p latino.
Comentarios 0