Evil Eye (2020) AMZN WEB-DL 1080p Latino

24 vistas
1 estrella2 estrellas3 estrellas4 estrellas5 estrellas (2 votos, promedio: 5,00 de 5)
Cargando...

Información de Evil Eye (2020) AMZN WEB-DL 1080p Latino

Datos de la película

  • Calidad: WEBDL
  • Audio: Español Latino E-AC3 5.1 AMAZON - Ingles E-AC3 5.1 AMAZON
  • Subtitulos: Español Latino SRT- FORZADOS SRT
  • Resolución: 1920x800
  • Formato: MKV
  • Codec: H.264
  • Encoder: cinemaniahdd
  • Mediainfo: Clic para Mostrar Datos Ver
  • Evil Eye (2020) AMZN WEB-DL 1080p Latino [CNMNHDD].mkv
    Format                      : Matroska
    Format version              : Version 4
    File size                   : 7.01 GiB
    Duration                    : 1 h 29 min
    Overall bit rate            : 11.2 Mb/s
    Movie name                  : Evil Eye (2020) - CinemaniaHDD.Net
    Encoded date                : UTC 2020-10-13 01:51:46
    Writing application         : mkvmerge v51.0.0 ('I Wish') 64-bit
    Writing library             : libebml v1.4.0 + libmatroska v1.6.2

    Video
    ID                          : 1
    Format                      : AVC
    Format/Info                 : Advanced Video Codec
    Format profile              : High@L4
    Format settings             : CABAC / 4 Ref Frames
    Format settings, CABAC      : Yes
    Format settings, Reference  : 4 frames
    Codec ID                    : V_MPEG4/ISO/AVC
    Duration                    : 1 h 29 min
    Bit rate mode               : Constant
    Bit rate                    : 8 676 kb/s
    Nominal bit rate            : 10 000 kb/s
    Width                       : 1 920 pixels
    Height                      : 800 pixels
    Display aspect ratio        : 2.40:1
    Frame rate mode             : Constant
    Frame rate                  : 23.976 (24000/1001) FPS
    Color space                 : YUV
    Chroma subsampling          : 4:2:0
    Bit depth                   : 8 bits
    Scan type                   : Progressive
    Bits/(Pixel*Frame)          : 0.236
    Stream size                 : 5.41 GiB (77%)
    Title                       : CinemaniaHDD
    Default                     : Yes
    Forced                      : No
    Color range                 : Limited
    Color primaries             : BT.709
    Transfer characteristics    : BT.709
    Matrix coefficients         : BT.709

    Audio #1
    ID                          : 2
    Format                      : AC-3
    Format/Info                 : Audio Coding 3
    Commercial name             : Dolby Digital
    Codec ID                    : A_AC3
    Duration                    : 1 h 29 min
    Bit rate mode               : Constant
    Bit rate                    : 640 kb/s
    Channel(s)                  : 6 channels
    Channel layout              : L R C LFE Ls Rs
    Sampling rate               : 48.0 kHz
    Frame rate                  : 31.250 FPS (1536 SPF)
    Compression mode            : Lossy
    Stream size                 : 409 MiB (6%)
    Title                       : Español latino - AC3 [CinemaniaHDD]
    Language                    : Spanish
    Service kind                : Complete Main
    Default                     : Yes
    Forced                      : No

    Audio #2
    ID                          : 3
    Format                      : E-AC-3
    Format/Info                 : Enhanced AC-3
    Commercial name             : Dolby Digital Plus
    Codec ID                    : A_EAC3
    Duration                    : 1 h 29 min
    Bit rate mode               : Constant
    Bit rate                    : 640 kb/s
    Channel(s)                  : 6 channels
    Channel layout              : L R C LFE Ls Rs
    Sampling rate               : 48.0 kHz
    Frame rate                  : 31.250 FPS (1536 SPF)
    Compression mode            : Lossy
    Stream size                 : 409 MiB (6%)
    Title                       : Español latino - E-AC3 [CinemaniaHDD]
    Language                    : Spanish
    Service kind                : Complete Main
    Default                     : No
    Forced                      : No

    Audio #3
    ID                          : 4
    Format                      : E-AC-3
    Format/Info                 : Enhanced AC-3
    Commercial name             : Dolby Digital Plus
    Codec ID                    : A_EAC3
    Duration                    : 1 h 29 min
    Bit rate mode               : Constant
    Bit rate                    : 640 kb/s
    Channel(s)                  : 6 channels
    Channel layout              : L R C LFE Ls Rs
    Sampling rate               : 48.0 kHz
    Frame rate                  : 31.250 FPS (1536 SPF)
    Compression mode            : Lossy
    Stream size                 : 409 MiB (6%)
    Title                       : Inglés - E-AC3 [CinemaniaHDD]
    Language                    : English
    Service kind                : Complete Main
    Default                     : No
    Forced                      : No

    Audio #4
    ID                          : 5
    Format                      : AC-3
    Format/Info                 : Audio Coding 3
    Commercial name             : Dolby Digital
    Codec ID                    : A_AC3
    Duration                    : 1 h 29 min
    Bit rate mode               : Constant
    Bit rate                    : 640 kb/s
    Channel(s)                  : 6 channels
    Channel layout              : L R C LFE Ls Rs
    Sampling rate               : 48.0 kHz
    Frame rate                  : 31.250 FPS (1536 SPF)
    Compression mode            : Lossy
    Stream size                 : 409 MiB (6%)
    Title                       : Inglés - AC3 [CinemaniaHDD]
    Language                    : English
    Service kind                : Complete Main
    Default                     : No
    Forced                      : No

    Text #1
    ID                          : 6
    Format                      : UTF-8
    Codec ID                    : S_TEXT/UTF8
    Codec ID/Info               : UTF-8 Plain Text
    Duration                    : 1 h 27 min
    Bit rate                    : 1 b/s
    Count of elements           : 30
    Stream size                 : 858 Bytes (0%)
    Title                       : Forzados [CinemaniaHDD]
    Language                    : Spanish
    Default                     : Yes
    Forced                      : Yes

    Text #2
    ID                          : 7
    Format                      : UTF-8
    Codec ID                    : S_TEXT/UTF8
    Codec ID/Info               : UTF-8 Plain Text
    Duration                    : 1 h 28 min
    Bit rate                    : 62 b/s
    Count of elements           : 1313
    Stream size                 : 40.3 KiB (0%)
    Title                       : Español latino [CinemaniaHDD]
    Language                    : Spanish
    Default                     : No
    Forced                      : No

    Text #3
    ID                          : 8
    Format                      : UTF-8
    Codec ID                    : S_TEXT/UTF8
    Codec ID/Info               : UTF-8 Plain Text
    Duration                    : 1 h 28 min
    Bit rate                    : 75 b/s
    Count of elements           : 1827
    Stream size                 : 48.6 KiB (0%)
    Title                       : Inglés [CinemaniaHDD]
    Language                    : English
    Default                     : No
    Forced                      : No

  • Peso: 7.01 GiB

Sinopsis

Una madre supersticiosa está convencida de que el nuevo novio de su hija es la reencarnación de un hombre que intentó matarla hace 30 años.

Ficha técnica

Video trailer de la película

Enlaces de descarga

Rip de Bluray

Descargar Evil Eye (2020) AMZN WEB-DL 1080p Latino




Aportes de DPeliculasHDmega la pass es:dpeliculashdmega.org Aportes de CinemaniaHD la pass es:cinemaniahdd.com
Guardado en : Misterio , Suspenso , Terror

Películas relacionadas

  • Fuga De Pretoria (2020) HD 1080p Latino

    Fuga De Pretoria (2020) HD 1080p Latino

    2020
    Fuga De Pretoria (2020) HD 1080p Latino

    5.0 1h 42m 2020

    Descargar Fuga De Pretoria (2020) HD 1080p Latino. Sudáfrica, 1978. Tim Jenkin y Stephen Lee, dos activistas...

    Director: Wayne Nassereddine

    Género: Drama

    Actores: Vuyo Loko

  • Fuga De Pretoria (2020) PLACEBO Full HD 1080p Latino

    Fuga De Pretoria (2020) PLACEBO Full HD 1080p Latino

    2020
    Fuga De Pretoria (2020) PLACEBO Full HD 1080p Latino

    5.0 1h 42m 2020

    Descargar Fuga De Pretoria (2020) PLACEBO Full HD 1080p Latino. Sudáfrica, 1978. Tim Jenkin y Stephen...

    Director: Wayne Nassereddine

    Género: Drama

    Actores: Vuyo Loko

  • Fuga De Pretoria (2020) REMUX 1080p Latino

    Fuga De Pretoria (2020) REMUX 1080p Latino

    2020
    Fuga De Pretoria (2020) REMUX 1080p Latino

    5.0 1h 42m 2020

    Descargar Fuga De Pretoria (2020) REMUX 1080p Latino. Sudáfrica, 1978. Tim Jenkin y Stephen Lee, dos...

    Director: Wayne Nassereddine

    Género: Drama

    Actores: Vuyo Loko

Comentarios 0