×

¿Problemas para descargar con Mozilla, EDGE? Deshabilita la opción "Abrir vinculos en una pestaña nueva" tal como lo muestra ésta imagen.

Evil Dead: El despertar (2023) REMUX 1080p Latino

296 vistas

Información de Evil Dead: El despertar (2023) REMUX 1080p Latino

Datos de la película

  • Calidad: Full 1080p
  • Audio: Se especifica abajo de la Sinopsis
  • Subtitulos: Español Latino SRT- FORZADOS SRT
  • Resolución: 1920x1080p
  • Formato: MKV
  • Codec: H.264
  • Encoder: Melkor
  • Mediainfo: Clic para Mostrar Datos Ver
  • Evil Dead El Despertar (2023) REMUX 1080p Latino.mkv
    Format                      : Matroska
    Format version              : Version 4
    File size                   : 21.7 GiB
    Duration                    : 1 h 36 min
    Overall bit rate mode       : Variable
    Overall bit rate            : 32.1 Mb/s
    Movie name                  : Evil Dead Rise (2023) CinemaniaHDD.Net
    Encoded date                : UTC 2023-06-19 19:52:56
    Writing application         : mkvmerge v56.1.0 ('My Friend') 64-bit
    Writing library             : libebml v1.4.2 + libmatroska v1.6.4
    Attachments                 : CINEMANIAHD.png
    Site                        : CinemaniaHDD.Net
    Uploader                    : Melkor

    Video
    ID                          : 1
    Format                      : AVC
    Format/Info                 : Advanced Video Codec
    Format profile              : High@L4.1
    Format settings             : CABAC / 2 Ref Frames
    Format settings, CABAC      : Yes
    Format settings, Reference  : 2 frames
    Codec ID                    : V_MPEG4/ISO/AVC
    Duration                    : 1 h 36 min
    Bit rate mode               : Variable
    Bit rate                    : 27.7 Mb/s
    Width                       : 1 920 pixels
    Height                      : 1 080 pixels
    Display aspect ratio        : 16:9
    Frame rate mode             : Constant
    Frame rate                  : 23.976 (24000/1001) FPS
    Color space                 : YUV
    Chroma subsampling          : 4:2:0
    Bit depth                   : 8 bits
    Scan type                   : Progressive
    Bits/(Pixel*Frame)          : 0.557
    Stream size                 : 18.7 GiB (86%)
    Title                       : REMUX HD1080p [CinemaniaHDD]
    Default                     : Yes
    Forced                      : Yes

    Audio #1
    ID                          : 2
    Format                      : AC-3
    Format/Info                 : Audio Coding 3
    Commercial name             : Dolby Digital
    Codec ID                    : A_AC3
    Duration                    : 1 h 36 min
    Bit rate mode               : Constant
    Bit rate                    : 640 kb/s
    Channel(s)                  : 6 channels
    Channel layout              : L R C LFE Ls Rs
    Sampling rate               : 48.0 kHz
    Frame rate                  : 31.250 FPS (1536 SPF)
    Compression mode            : Lossy
    Stream size                 : 442 MiB (2%)
    Title                       : Español Latino [CinemaniaHDD]
    Language                    : Spanish
    Service kind                : Complete Main
    Default                     : Yes
    Forced                      : Yes

    Audio #2
    ID                          : 3
    Format                      : MLP FBA 16-ch
    Format/Info                 : Meridian Lossless Packing FBA with 16-channel presentation
    Commercial name             : Dolby TrueHD with Dolby Atmos
    Codec ID                    : A_TRUEHD
    Duration                    : 1 h 36 min
    Bit rate mode               : Variable
    Bit rate                    : 3 267 kb/s
    Maximum bit rate            : 6 144 kb/s
    Channel(s)                  : 8 channels
    Channel layout              : L R C LFE Ls Rs Lb Rb
    Sampling rate               : 48.0 kHz
    Frame rate                  : 1 200.000 FPS (40 SPF)
    Compression mode            : Lossless
    Stream size                 : 2.20 GiB (10%)
    Title                       : Ingles [CinemaniaHDD]
    Language                    : English
    Default                     : No
    Forced                      : Yes
    Number of dynamic objects   : 11
    Bed channel count           : 1 channel
    Bed channel configuration   : LFE

    Audio #3
    ID                          : 4
    Format                      : AC-3
    Format/Info                 : Audio Coding 3
    Commercial name             : Dolby Digital
    Codec ID                    : A_AC3
    Duration                    : 1 h 36 min
    Bit rate mode               : Constant
    Bit rate                    : 448 kb/s
    Channel(s)                  : 6 channels
    Channel layout              : L R C LFE Ls Rs
    Sampling rate               : 48.0 kHz
    Frame rate                  : 31.250 FPS (1536 SPF)
    Compression mode            : Lossy
    Stream size                 : 309 MiB (1%)
    Title                       : Ingles-AC3 [CinemaniaHDD]
    Language                    : English
    Service kind                : Complete Main
    Default                     : No
    Forced                      : No

    Text #1
    ID                          : 5
    Format                      : UTF-8
    Codec ID                    : S_TEXT/UTF8
    Codec ID/Info               : UTF-8 Plain Text
    Duration                    : 1 h 25 min
    Bit rate                    : 0 b/s
    Count of elements           : 22
    Stream size                 : 515 Bytes (0%)
    Title                       : Forzados-SRT [CinemaniaHDD]
    Language                    : Spanish
    Default                     : Yes
    Forced                      : Yes

    Text #2
    ID                          : 6
    Format                      : UTF-8
    Codec ID                    : S_TEXT/UTF8
    Codec ID/Info               : UTF-8 Plain Text
    Duration                    : 1 h 35 min
    Bit rate                    : 25 b/s
    Count of elements           : 648
    Stream size                 : 17.5 KiB (0%)
    Title                       : Español-SRT [CinemaniaHDD]
    Language                    : Spanish
    Default                     : No
    Forced                      : No

    Text #3
    ID                          : 7
    Format                      : UTF-8
    Codec ID                    : S_TEXT/UTF8
    Codec ID/Info               : UTF-8 Plain Text
    Duration                    : 1 h 27 min
    Bit rate                    : 27 b/s
    Count of elements           : 656
    Stream size                 : 17.8 KiB (0%)
    Title                       : Ingles [CinemaniaHDD]
    Language                    : English
    Default                     : No
    Forced                      : No

    Menu
    00:00:00.000                : Chapter 01
    00:11:02.870                : Chapter 02
    00:21:20.028                : Chapter 03
    00:30:10.349                : Chapter 04
    00:39:46.717                : Chapter 05
    00:50:54.967                : Chapter 06
    01:00:02.139                : Chapter 07
    01:09:21.323                : Chapter 08
    01:18:26.158                : Chapter 09
    01:30:09.904                : Chapter 10

  • Peso: 21.7 GiB

Sinopsis

Descargar Evil Dead: El despertar (2023) REMUX 1080p Latino. Historia de dos hermanas separadas cuyo reencuentro se ve interrumpido por el surgimiento de demonios poseedores de carne, empujándolos a una batalla por la supervivencia mientras se enfrentan a la versión de familia más aterradora que se pueda imaginar. Secuela de la trilgía original de ‘Evil Dead’.

Español Latino AC3 5.1 – TrueHD 7.1 & Core AC3 5.1 

Ficha técnica

Video trailer de la película

Enlaces de descarga

Rip de Bluray

Descargar Evil Dead: El despertar (2023) REMUX 1080p Latino


Aportes de DPeliculasHDmega la pass es:dpeliculashdmega.org Aportes de CinemaniaHD la pass es:cinemaniahdd.com Aportes recientes:cinemaniahdd.net
Guardado en : Remux , Suspenso , Terror
Etiquetado en :

Películas relacionadas

descargar Evil Dead: El despertar (2023) REMUX 1080p Latino Full 1080p 1080p gratis, Evil Dead: El despertar (2023) REMUX 1080p Latino Full 1080p mega 1 link, Evil Dead: El despertar (2023) REMUX 1080p Latino Full 1080p pelicula completa, descargar Evil Dead: El despertar (2023) REMUX 1080p Latino Full 1080p gratis en mega.

Evil Dead: El despertar (2023) REMUX 1080p Latino pelicula full hd, Evil Dead: El despertar (2023) REMUX 1080p Latino mega latino, Evil Dead: El despertar (2023) REMUX 1080p Latino 4k latino, Evil Dead: El despertar (2023) REMUX 1080p Latino pelicula completa, Evil Dead: El despertar (2023) REMUX 1080p Latino descargar gratis, descargar Evil Dead: El despertar (2023) REMUX 1080p Latino pelicula latino, Evil Dead: El despertar (2023) REMUX 1080p Latino 1 link mega, Evil Dead: El despertar (2023) REMUX 1080p Latino 1 link google drive, Evil Dead: El despertar (2023) REMUX 1080p Latino hd 1080p latino.
Comentarios 0