×

¿Problemas para descargar con Mozilla, EDGE? Deshabilita la opción "Abrir vinculos en una pestaña nueva" tal como lo muestra ésta imagen.

Evil Dead (2013) Full HD PLACEBO 1080p Latino

430 vistas

Información de Evil Dead (2013) Full HD PLACEBO 1080p Latino

Datos de la película

  • Calidad: Full 1080p
  • Audio: Español Latino AC3 5.1 BLURAY - Ingles DTS 5.1 BLURAY
  • Subtitulos: Español Latino SRT- FORZADOS SRT
  • Resolución: 1920x1080
  • Formato: MKV
  • Codec: H.264
  • Encoder: cinemaniahdd
  • Mediainfo: Clic para Mostrar Datos Ver
  • Evil Dead (2013) Full HD PLACEBO 1080p Latino.mkv
    Format                      : Matroska
    Format version              : Version 4
    File size                   : 5.00 GiB
    Duration                    : 1 h 31 min
    Overall bit rate            : 7 836 kb/s
    Movie name                  : Posesión infernal (2013) - CinemaniaHDD.Net
    Encoded date                : UTC 2020-06-18 19:09:59
    Writing application         : mkvmerge v46.0.0 ('No Deeper Escape') 64-bit
    Writing library             : libebml v1.3.10 + libmatroska v1.5.2

    Video
    ID                          : 1
    Format                      : AVC
    Format/Info                 : Advanced Video Codec
    Format profile              : High@L4.1
    Format settings             : CABAC / 4 Ref Frames
    Format settings, CABAC      : Yes
    Format settings, Reference  : 4 frames
    Codec ID                    : V_MPEG4/ISO/AVC
    Duration                    : 1 h 31 min
    Bit rate                    : 5 680 kb/s
    Width                       : 1 920 pixels
    Height                      : 1 080 pixels
    Display aspect ratio        : 16:9
    Frame rate mode             : Constant
    Frame rate                  : 23.976 (24000/1001) FPS
    Color space                 : YUV
    Chroma subsampling          : 4:2:0
    Bit depth                   : 8 bits
    Scan type                   : Progressive
    Bits/(Pixel*Frame)          : 0.114
    Stream size                 : 3.62 GiB (72%)
    Title                       : CinemaniaHDD
    Writing library             : x264 core 148 r2744 b97ae06
    Encoding settings           : cabac=1 / ref=4 / deblock=1:0:0 / analyse=0x3:0x133 / me=tesa / subme=11 / psy=1 / psy_rd=1.00:0.00 / mixed_ref=1 / me_range=24 / chroma_me=1 / trellis=2 / 8x8dct=1 / cqm=0 / deadzone=21,11 / fast_pskip=0 / chroma_qp_offset=-2 / threads=12 / lookahead_threads=3 / sliced_threads=0 / nr=0 / decimate=1 / interlaced=0 / bluray_compat=0 / constrained_intra=0 / bframes=16 / b_pyramid=2 / b_adapt=2 / b_bias=0 / direct=3 / weightb=1 / open_gop=0 / weightp=2 / keyint=240 / keyint_min=23 / scenecut=40 / intra_refresh=0 / rc_lookahead=60 / rc=crf / mbtree=1 / crf=19.5 / qcomp=0.60 / qpmin=0 / qpmax=69 / qpstep=4 / vbv_maxrate=62500 / vbv_bufsize=78125 / crf_max=0.0 / nal_hrd=none / filler=0 / ip_ratio=1.40 / aq=1:1.00
    Default                     : Yes
    Forced                      : No

    Audio #1
    ID                          : 2
    Format                      : AC-3
    Format/Info                 : Audio Coding 3
    Commercial name             : Dolby Digital
    Codec ID                    : A_AC3
    Duration                    : 1 h 31 min
    Bit rate mode               : Constant
    Bit rate                    : 640 kb/s
    Channel(s)                  : 6 channels
    Channel layout              : L R C LFE Ls Rs
    Sampling rate               : 48.0 kHz
    Frame rate                  : 31.250 FPS (1536 SPF)
    Compression mode            : Lossy
    Stream size                 : 418 MiB (8%)
    Title                       : Español latino [CinemaniaHDD]
    Language                    : Spanish
    Service kind                : Complete Main
    Default                     : Yes
    Forced                      : No

    Audio #2
    ID                          : 3
    Format                      : DTS
    Format/Info                 : Digital Theater Systems
    Codec ID                    : A_DTS
    Duration                    : 1 h 31 min
    Bit rate mode               : Constant
    Bit rate                    : 1 509 kb/s
    Channel(s)                  : 6 channels
    Channel layout              : C L R Ls Rs LFE
    Sampling rate               : 48.0 kHz
    Frame rate                  : 93.750 FPS (512 SPF)
    Bit depth                   : 24 bits
    Compression mode            : Lossy
    Stream size                 : 986 MiB (19%)
    Title                       : Inglés [CinemaniaHDD]
    Language                    : English
    Default                     : No
    Forced                      : No

    Text #1
    ID                          : 4
    Format                      : UTF-8
    Codec ID                    : S_TEXT/UTF8
    Codec ID/Info               : UTF-8 Plain Text
    Duration                    : 1 h 22 min
    Bit rate                    : 1 b/s
    Count of elements           : 26
    Stream size                 : 632 Bytes (0%)
    Title                       : Forzados [CinemaniaHDD]
    Language                    : Spanish
    Default                     : Yes
    Forced                      : Yes

    Text #2
    ID                          : 5
    Format                      : UTF-8
    Codec ID                    : S_TEXT/UTF8
    Codec ID/Info               : UTF-8 Plain Text
    Duration                    : 1 h 29 min
    Bit rate                    : 23 b/s
    Count of elements           : 589
    Stream size                 : 15.1 KiB (0%)
    Title                       : Español latino [CinemaniaHDD]
    Language                    : Spanish
    Default                     : No
    Forced                      : No

    Text #3
    ID                          : 6
    Format                      : PGS
    Muxing mode                 : zlib
    Codec ID                    : S_HDMV/PGS
    Codec ID/Info               : Picture based subtitle format used on BDs/HD-DVDs
    Duration                    : 1 h 29 min
    Bit rate                    : 15.1 kb/s
    Count of elements           : 1182
    Stream size                 : 9.63 MiB (0%)
    Title                       : Español latino - PGS [CinemaniaHDD]
    Language                    : Spanish
    Default                     : No
    Forced                      : No

    Menu
    00:00:00.000                : en:Chapter 1
    00:05:10.310                : en:Chapter 2
    00:09:46.085                : en:Chapter 3
    00:14:24.029                : en:Chapter 4
    00:18:34.029                : en:Chapter 5
    00:23:14.309                : en:Chapter 6
    00:30:38.044                : en:Chapter 7
    00:35:34.799                : en:Chapter 8
    00:40:36.475                : en:Chapter 9
    00:49:43.480                : en:Chapter 10
    00:55:24.237                : en:Chapter 11
    01:01:35.191                : en:Chapter 12
    01:08:35.778                : en:Chapter 13
    01:14:05.983                : en:Chapter 14
    01:17:24.973                : en:Chapter 15
    01:20:36.248                : en:Chapter 16

     

  • Peso: 5.00 GiB

Sinopsis

Un grupo de estudiantes norteamericanos ha viajado hacia una cabaña aislada en el bosque para descansar de sus preocupaciones. Sin embargo, pronto descubrirán un secreto escabroso que los pondrá en peligro.

Ficha técnica

Video trailer de la película

Enlaces de descarga

Rip de Bluray

Descargar Evil Dead (2013) Full HD PLACEBO 1080p Latino




Aportes de DPeliculasHDmega la pass es:dpeliculashdmega.org Aportes de CinemaniaHD la pass es:cinemaniahdd.com

Películas relacionadas

descargar Evil Dead (2013) Full HD PLACEBO 1080p Latino Full 1080p 1080p gratis, Evil Dead (2013) Full HD PLACEBO 1080p Latino Full 1080p mega 1 link, Evil Dead (2013) Full HD PLACEBO 1080p Latino Full 1080p pelicula completa, descargar Evil Dead (2013) Full HD PLACEBO 1080p Latino Full 1080p gratis en mega.

Evil Dead (2013) Full HD PLACEBO 1080p Latino pelicula full hd, Evil Dead (2013) Full HD PLACEBO 1080p Latino mega latino, Evil Dead (2013) Full HD PLACEBO 1080p Latino 4k latino, Evil Dead (2013) Full HD PLACEBO 1080p Latino pelicula completa, Evil Dead (2013) Full HD PLACEBO 1080p Latino descargar gratis, descargar Evil Dead (2013) Full HD PLACEBO 1080p Latino pelicula latino, Evil Dead (2013) Full HD PLACEBO 1080p Latino 1 link mega, Evil Dead (2013) Full HD PLACEBO 1080p Latino 1 link google drive, Evil Dead (2013) Full HD PLACEBO 1080p Latino hd 1080p latino.
Comentarios 0