×

¿Problemas para descargar con Mozilla, EDGE? Deshabilita la opción "Abrir vinculos en una pestaña nueva" tal como lo muestra ésta imagen.

Evil (2022) Temporada 3 [09/10] AMZN WEB-DL 1080p Latino

114 vistas

Información de Evil (2022) Temporada 3 [09/10] AMZN WEB-DL 1080p Latino

Datos de la película

  • Calidad: 1080p
  • Audio: Español Latino AC3 2.0 WEB-DL - Ingles AC3 5.1 WEB-DL
  • Subtitulos: Español Latino SRT- FORZADOS SRT
  • Resolución: 1920x1080
  • Formato: MKV
  • Codec: H.264
  • Encoder: cinemaniahdd
  • Mediainfo: Clic para Mostrar Datos Ver
  • Evil T03E01 AMZN WEB-DL 1080p Latino [CNMNHD].mkv
    Format                      : Matroska
    Format version              : Version 4
    File size                   : 2.14 GiB
    Duration                    : 48 min 1 s
    Overall bit rate            : 6 375 kb/s
    Movie name                  : Evil S03E01 The Demon of Death [1080p] - CinemaniaHDD.Net
    Encoded date                : UTC 2022-10-04 01:44:22
    Writing application         : mkvmerge v56.1.0 ('My Friend') 64-bit
    Writing library             : libebml v1.4.2 + libmatroska v1.6.4

    Video
    ID                          : 1
    Format                      : AVC
    Format/Info                 : Advanced Video Codec
    Format profile              : High@L4
    Format settings             : CABAC / 4 Ref Frames
    Format settings, CABAC      : Yes
    Format settings, Reference  : 4 frames
    Codec ID                    : V_MPEG4/ISO/AVC
    Duration                    : 48 min 1 s
    Bit rate mode               : Constant
    Bit rate                    : 5 348 kb/s
    Nominal bit rate            : 10 000 kb/s
    Width                       : 1 920 pixels
    Height                      : 1 080 pixels
    Display aspect ratio        : 16:9
    Frame rate mode             : Constant
    Frame rate                  : 24.000 FPS
    Color space                 : YUV
    Chroma subsampling          : 4:2:0
    Bit depth                   : 8 bits
    Scan type                   : Progressive
    Bits/(Pixel*Frame)          : 0.107
    Stream size                 : 1.79 GiB (84%)
    Title                       : CinemaniaHDD
    Default                     : Yes
    Forced                      : No
    Color range                 : Limited
    Color primaries             : BT.709
    Transfer characteristics    : BT.709
    Matrix coefficients         : BT.709

    Audio #1
    ID                          : 2
    Format                      : AC-3
    Format/Info                 : Audio Coding 3
    Commercial name             : Dolby Digital
    Codec ID                    : A_AC3
    Duration                    : 48 min 1 s
    Bit rate mode               : Constant
    Bit rate                    : 384 kb/s
    Channel(s)                  : 2 channels
    Channel layout              : L R
    Sampling rate               : 48.0 kHz
    Frame rate                  : 31.250 FPS (1536 SPF)
    Compression mode            : Lossy
    Stream size                 : 132 MiB (6%)
    Title                       : Español latino [CinemaniaHDD]
    Language                    : Spanish
    Service kind                : Complete Main
    Default                     : Yes
    Forced                      : No

    Audio #2
    ID                          : 3
    Format                      : E-AC-3
    Format/Info                 : Enhanced AC-3
    Commercial name             : Dolby Digital Plus
    Codec ID                    : A_EAC3
    Duration                    : 48 min 1 s
    Bit rate mode               : Constant
    Bit rate                    : 640 kb/s
    Channel(s)                  : 6 channels
    Channel layout              : L R C LFE Ls Rs
    Sampling rate               : 48.0 kHz
    Frame rate                  : 31.250 FPS (1536 SPF)
    Compression mode            : Lossy
    Stream size                 : 220 MiB (10%)
    Title                       : Inglés [CinemaniaHDD]
    Language                    : English
    Service kind                : Complete Main
    Default                     : No
    Forced                      : No

    Text #1
    ID                          : 4
    Format                      : UTF-8
    Codec ID                    : S_TEXT/UTF8
    Codec ID/Info               : UTF-8 Plain Text
    Duration                    : 41 min 54 s
    Bit rate                    : 1 b/s
    Count of elements           : 15
    Stream size                 : 341 Bytes (0%)
    Title                       : Forzados [CinemaniaHDD]
    Language                    : Spanish
    Default                     : Yes
    Forced                      : Yes

    Text #2
    ID                          : 5
    Format                      : UTF-8
    Codec ID                    : S_TEXT/UTF8
    Codec ID/Info               : UTF-8 Plain Text
    Duration                    : 47 min 24 s
    Bit rate                    : 59 b/s
    Count of elements           : 784
    Stream size                 : 20.6 KiB (0%)
    Title                       : Español latino [CinemaniaHDD]
    Language                    : Spanish
    Default                     : No
    Forced                      : No

    Text #3
    ID                          : 6
    Format                      : UTF-8
    Codec ID                    : S_TEXT/UTF8
    Codec ID/Info               : UTF-8 Plain Text
    Duration                    : 47 min 0 s
    Bit rate                    : 72 b/s
    Count of elements           : 874
    Stream size                 : 25.1 KiB (0%)
    Title                       : Inglés [CinemaniaHDD]
    Language                    : English
    Default                     : No
    Forced                      : No

    Menu
    00:00:00.000                : Scene 1
    00:02:31.000                : Scene 2
    00:02:48.000                : Scene 3
    00:03:41.000                : Scene 4
    00:05:42.000                : Scene 5
    00:07:14.000                : Scene 6
    00:08:47.000                : Scene 7
    00:09:23.000                : Scene 8
    00:10:23.000                : Scene 9
    00:11:10.000                : Scene 10
    00:11:41.000                : Scene 11
    00:13:00.000                : Scene 12
    00:15:38.000                : Scene 13
    00:16:10.000                : Scene 14
    00:17:08.000                : Scene 15
    00:18:04.000                : Scene 16
    00:18:38.000                : Scene 17
    00:19:02.000                : Scene 18
    00:19:51.000                : Scene 19
    00:20:33.000                : Scene 20
    00:22:39.000                : Scene 21
    00:23:13.000                : Scene 22
    00:23:51.000                : Scene 23
    00:24:49.000                : Scene 24
    00:25:13.000                : Scene 25
    00:26:13.000                : Scene 26
    00:28:00.000                : Scene 27
    00:29:17.000                : Scene 28
    00:30:14.000                : Scene 29
    00:31:55.000                : Scene 30
    00:33:11.000                : Scene 31
    00:35:26.000                : Scene 32
    00:36:28.000                : Scene 33
    00:37:02.000                : Scene 34
    00:38:22.000                : Scene 35
    00:39:01.000                : Scene 36
    00:39:48.000                : Scene 37
    00:41:07.000                : Scene 38
    00:42:54.000                : Scene 39
    00:43:51.000                : Scene 40
    00:45:34.000                : Scene 41
    00:46:09.000                : Scene 42
    00:47:17.000                : Scene 43

     

  • Peso: 2.14 GiB C/U --- 9 CAPITULOS AGREGADOS

Sinopsis

EVIL es una serie de misterio psicológico que examina los orígenes del mal a lo largo de la línea divisoria entre la ciencia y la religión.

9 CAPITULOS AGREGADOS

Ficha técnica

Video trailer de la película

Enlaces de descarga

Rip de Bluray

Descargar Evil (2022) Temporada 3 [09/10] AMZN WEB-DL 1080p Latino




Aportes de DPeliculasHDmega la pass es:dpeliculashdmega.org Aportes de CinemaniaHD la pass es:cinemaniahdd.com
Guardado en : Drama , Series

Películas relacionadas

descargar Evil (2022) Temporada 3 [09/10] AMZN WEB-DL 1080p Latino 1080p 1080p gratis, Evil (2022) Temporada 3 [09/10] AMZN WEB-DL 1080p Latino 1080p mega 1 link, Evil (2022) Temporada 3 [09/10] AMZN WEB-DL 1080p Latino 1080p serie completa, descargar Evil (2022) Temporada 3 [09/10] AMZN WEB-DL 1080p Latino 1080p gratis en mega.

Evil (2022) Temporada 3 [09/10] AMZN WEB-DL 1080p Latino pelicula full hd, Evil (2022) Temporada 3 [09/10] AMZN WEB-DL 1080p Latino mega latino, Evil (2022) Temporada 3 [09/10] AMZN WEB-DL 1080p Latino 4k latino, Evil (2022) Temporada 3 [09/10] AMZN WEB-DL 1080p Latino pelicula completa, Evil (2022) Temporada 3 [09/10] AMZN WEB-DL 1080p Latino descargar gratis, descargar Evil (2022) Temporada 3 [09/10] AMZN WEB-DL 1080p Latino pelicula latino, Evil (2022) Temporada 3 [09/10] AMZN WEB-DL 1080p Latino 1 link mega, Evil (2022) Temporada 3 [09/10] AMZN WEB-DL 1080p Latino 1 link google drive, Evil (2022) Temporada 3 [09/10] AMZN WEB-DL 1080p Latino hd 1080p latino.
Comentarios 0