Everything, Everything (2017) 1080p Latino

4.294 vistas
1 estrella2 estrellas3 estrellas4 estrellas5 estrellas (1 votos, promedio: 5,00 de 5)
Cargando…

Información de Everything, Everything (2017) 1080p Latino

Datos de la película

  • Calidad: 1080p
  • Audio: Español Latino AC3 5.1 DVD - Ingles AC3 5.1 BLURAY
  • Subtitulos: Español Latino SRT - Ingles SRT
  • Resolución: 1920x1080p
  • Formato: MKV
  • Codec: H.264
  • Encoder: Dpelis
  • Mediainfo: Clic para Mostrar Datos Ver
  • Everything.everything.2017.1080p.Latino.mkv
    Format                      : Matroska
    Format version              : Version 4 / Version 2
    File size                   : 2.84 GiB
    Duration                    : 1 h 36 min
    Overall bit rate            : 4 218 kb/s
    Movie name                  : DPeliculasHDMega.ORG
    Encoded date                : UTC 2017-08-01 20:29:14 / UTC 2017-08-01T19:36:51Z
    Writing application         : mkvmerge v10.0.0 ('To Drown In You') 64bit
    Writing library             : libebml v1.3.4 + libmatroska v1.4.5 / Lavf57.7.2

    Video
    ID                          : 1
    Format                      : AVC
    Format/Info                 : Advanced Video Codec
    Format profile              : [email protected]
    Format settings, CABAC      : Yes
    Format settings, ReFrames   : 4 frames
    Codec ID                    : V_MPEG4/ISO/AVC
    Duration                    : 1 h 36 min
    Bit rate                    : 3 500 kb/s
    Width                       : 1 920 pixels
    Height                      : 1 080 pixels
    Display aspect ratio        : 16:9
    Frame rate mode             : Constant
    Frame rate                  : 23.976 (24000/1001) FPS
    Color space                 : YUV
    Chroma subsampling          : 4:2:0
    Bit depth                   : 8 bits
    Scan type                   : Progressive
    Bits/(Pixel*Frame)          : 0.070
    Stream size                 : 2.27 GiB (80%)
    Writing library             : x264 core 148 r2708 86b7198
    Encoding settings           : cabac=1 / ref=3 / deblock=1:0:0 / analyse=0x3:0x113 / me=hex / subme=7 / psy=1 / psy_rd=1.00:0.00 / mixed_ref=1 / me_range=16 / chroma_me=1 / trellis=1 / 8x8dct=1 / cqm=0 / deadzone=21,11 / fast_pskip=1 / chroma_qp_offset=-2 / threads=34 / lookahead_threads=5 / sliced_threads=0 / nr=0 / decimate=1 / interlaced=0 / bluray_compat=0 / constrained_intra=0 / bframes=3 / b_pyramid=2 / b_adapt=1 / b_bias=0 / direct=1 / weightb=1 / open_gop=0 / weightp=2 / keyint=240 / keyint_min=24 / scenecut=40 / intra_refresh=0 / rc_lookahead=40 / rc=abr / mbtree=1 / bitrate=3500 / ratetol=1.0 / qcomp=0.60 / qpmin=0 / qpmax=69 / qpstep=4 / vbv_maxrate=62500 / vbv_bufsize=78125 / nal_hrd=none / filler=0 / ip_ratio=1.40 / aq=1:1.00
    Default                     : Yes
    Forced                      : No
    Color range                 : Limited
    Color primaries             : BT.709
    Transfer characteristics    : BT.709
    Matrix coefficients         : BT.709
    Statistics Tags Issue       : mkvmerge v10.0.0 ('To Drown In You') 64bit 2017-08-01 20:29:14 / mkvmerge v10.0.0 ('To Drown In You') 64bit 2017-08-01 20:29:14 / UTC 2017-08-01T19:36:51Z
    FromStats_BitRate           : 3447676
    FromStats_Duration          : 01:36:32.203000000
    FromStats_FrameCount        : 138874
    FromStats_StreamSize        : 2496205146

    Audio #1
    ID                          : 2
    Format                      : AC-3
    Format/Info                 : Audio Coding 3
    Format settings, Endianness : Big
    Codec ID                    : A_AC3
    Duration                    : 1 h 36 min
    Bit rate mode               : Constant
    Bit rate                    : 384 kb/s
    Channel(s)                  : 6 channels
    Channel positions           : Front: L C R, Side: L R, LFE
    Sampling rate               : 48.0 kHz
    Frame rate                  : 31.250 FPS (1536 spf)
    Bit depth                   : 16 bits
    Compression mode            : Lossy
    Delay relative to video     : -5 ms
    Stream size                 : 265 MiB (9%)
    Language                    : Spanish
    Service kind                : Complete Main
    Default                     : Yes
    Forced                      : No
    Statistics Tags Issue       : mkvmerge v10.0.0 ('To Drown In You') 64bit 2017-08-01 20:29:14 / mkvmerge v10.0.0 ('To Drown In You') 64bit 2017-08-01 20:29:14 / UTC 2017-08-01T19:36:51Z
    FromStats_BitRate           : 384000
    FromStats_Duration          : 01:36:32.096000000
    FromStats_FrameCount        : 181003
    FromStats_StreamSize        : 278020608

    Audio #2
    ID                          : 3
    Format                      : AC-3
    Format/Info                 : Audio Coding 3
    Format settings, Endianness : Big
    Codec ID                    : A_AC3
    Duration                    : 1 h 36 min
    Bit rate mode               : Constant
    Bit rate                    : 384 kb/s
    Channel(s)                  : 6 channels
    Channel positions           : Front: L C R, Side: L R, LFE
    Sampling rate               : 48.0 kHz
    Frame rate                  : 31.250 FPS (1536 spf)
    Bit depth                   : 16 bits
    Compression mode            : Lossy
    Delay relative to video     : -5 ms
    Stream size                 : 265 MiB (9%)
    Title                       : Surround
    Language                    : English
    Service kind                : Complete Main
    Default                     : No
    Forced                      : No
    Statistics Tags Issue       : mkvmerge v10.0.0 ('To Drown In You') 64bit 2017-08-01 20:29:14 / mkvmerge v10.0.0 ('To Drown In You') 64bit 2017-08-01 20:29:14 / UTC 2017-08-01T19:36:51Z
    FromStats_BitRate           : 384000
    FromStats_Duration          : 01:36:32.192000000
    FromStats_FrameCount        : 181006
    FromStats_StreamSize        : 278025216

    Text #1
    ID                          : 4
    Format                      : UTF-8
    Codec ID                    : S_TEXT/UTF8
    Codec ID/Info               : UTF-8 Plain Text
    Language                    : Spanish
    Default                     : Yes
    Forced                      : No
    Statistics Tags Issue       : mkvmerge v10.0.0 ('To Drown In You') 64bit 2017-08-01 20:29:14 / mkvmerge v10.0.0 ('To Drown In You') 64bit 2017-08-01 20:29:14 / UTC 2017-08-01T19:36:51Z
    FromStats_BitRate           : 48
    FromStats_Duration          : 01:29:07.749000000
    FromStats_FrameCount        : 1097
    FromStats_StreamSize        : 32315

    Text #2
    ID                          : 5
    Format                      : UTF-8
    Codec ID                    : S_TEXT/UTF8
    Codec ID/Info               : UTF-8 Plain Text
    Language                    : English
    Default                     : No
    Forced                      : No
    Statistics Tags Issue       : mkvmerge v10.0.0 ('To Drown In You') 64bit 2017-08-01 20:29:14 / mkvmerge v10.0.0 ('To Drown In You') 64bit 2017-08-01 20:29:14 / UTC 2017-08-01T19:36:51Z
    FromStats_BitRate           : 40
    FromStats_Duration          : 01:30:43.231000000
    FromStats_FrameCount        : 1016
    FromStats_StreamSize        : 27835

  • Peso: 2.84 GB

Sinopsis

Descargar Everything, Everything hd latino Maddy es una adolescente que ha vivido tranquila y protegida en su casa durante diecisiete años y no ha salido nunca al exterior. Las únicas personas a las que ve son a su madre y a su niñera Carla. Su vida da un giro inesperado cuando conoce a Olly, un nuevo vecino, y se enamora locamente de él. ¿Conseguirá Maddy hablar con este chico desconocido o elegirá no arriesgar por miedo a que le rompan el corazón?

Everything Everything es un drama romántico dirigido por Stella Meghie (Jean of the Joneses) y cuenta con un reparto formado por Nick Robinson (Jurassic World, La quinta ola), Taylor Hickson (Deadpool), Ana de la Reguera (Narcos), Amandla Stenberg (As You Are), Anika Noni Rose (For Colored Girls) y Dan Payne (Star Trek: Más allá), entre otros

Ficha técnica

  • Titulo original: Everything, Everything
  • Fecha de lanzamiento: 19-05-2017 (United States of America)
  • Director: Stella Meghie
  • Género: Drama, Romance
  • Puntuación: 5.0 1 votos
  • Duración:
    1h 36m

Video trailer de la película

Enlaces de descarga

Rip de Bluray

Descargar Everything, Everything (2017) 1080p Latino




Aportes de DPeliculasHDmega la pass es:dpeliculashdmega.org Aportes de CinemaniaHD la pass es:cinemaniahdd.com
Guardado en : Drama , Romance

Películas relacionadas

  • El Vacio (2018) Temporada 1 NF 1080p Latino

    2018
    El Vacio (2018) Temporada 1 NF 1080p Latino

    0.0 0h 25m 2018

    Tres adolescentes despiertan en un reino extraño lleno de portales mágicos, enigmas desconcertantes...

    Director: Vito Viscomi

    Género: Animación

    Actores: Mark Hildreth

  • Wolf Warrior 2 (2017) 1080p Latino

    2017
    Wolf Warrior 2 (2017) 1080p Latino

    0.0 2h 6m 2017

    Secuela de la película de acción exitosa "Wolf Warrior" (2015) La operación más peligrosa de las...

    Director: Wu Jing

    Género: Acción

    Actores: Yu Qian

  • The Front Runner (2018) Full 1080p Latino

    2018
    The Front Runner (2018) Full 1080p Latino

    0.0 1h 53m 2018

    Narra la campaña presidencial del senador estadounidense Gary Hart, que tuvo lugar en 1988, momento...

    Director: Jason Reitman

    Género: Drama

    Actores: William Walker

  • Papillon (2017) 1080p Latino

    2017
    Papillon (2017) 1080p Latino

    0.0 1h 49m 2017

    Red Granite Pictures producte esta nueva versión del clásico homónimo de 1973 dirigido por Franklin...

    Director: Michael Noer

    Género: Drama

    Actores: Yorick van Wageningen

Comentarios 4
  • Gabriel - 05 agosto, 2017

    Subirán esta película a MEGA o solo se quedaran con los publicados? (Google Drive, 1Fichier y Uptobox)

    • dpelis - 05 agosto, 2017

      los nuevos aportes se agregara mega.

  • rodrigo - 02 agosto, 2017

    para que bloquean los links con publicidad si no van a poner publicidad no pasa de los 30 segundos son la mejor pagina de peliculas pero con que necesidad ponen algo que no funciona y luego no dan soluciones ya borre caches y elimine acortadores de publicidad como descargo su contenido??

    • dpelis - 02 agosto, 2017

      haber es el unico o pocos. le recomiendo usar google chrome , borrar cookies, de ahi reiniciar su pc y intentar de nuevo, sino carga la publicidad cerrar la ventana y hacer de nuevo el proceso, porque tanto escandolo? ni yo me ando con tanto escandolo subiendo contenido