×

¿Problemas para descargar con Mozilla, EDGE? Deshabilita la opción "Abrir vinculos en una pestaña nueva" tal como lo muestra ésta imagen.

Everybody Loves Diamonds (2023) Primera Temporada AMZN WEB-DL 1080p Latino

219 vistas

Información de Everybody Loves Diamonds (2023) Primera Temporada AMZN WEB-DL 1080p Latino

Datos de la película

  • Calidad: 1080p
  • Audio: Español Latino AC3 5.1 WEB-DL - Ingles AC3 5.1 WEB-DL
  • Subtitulos: Español Latino SRT- FORZADOS SRT
  • Resolución: 1920x1080
  • Formato: MKV
  • Codec: H.264
  • Encoder: cinemaniahdd
  • Mediainfo: Clic para Mostrar Datos Ver
  • Everybody Loves Diamonds T01E01 AMZN WEB-DL 1080p Latino [CNMNHDD].mkv
    Format                      : Matroska
    Format version              : Version 4
    File size                   : 2.70 GiB
    Duration                    : 48 min 37 s
    Overall bit rate            : 7 940 kb/s
    Movie name                  : Everybody Loves Diamonds S01E01 - A nearperfect plan [1080p] - CinemaniaHDD.Net
    Encoded date                : UTC 2023-10-13 01:07:05
    Writing application         : mkvmerge v56.1.0 ('My Friend') 64-bit
    Writing library             : libebml v1.4.2 + libmatroska v1.6.4

    Video
    ID                          : 1
    Format                      : AVC
    Format/Info                 : Advanced Video Codec
    Format profile              : High@L4
    Format settings             : CABAC / 4 Ref Frames
    Format settings, CABAC      : Yes
    Format settings, Reference  : 4 frames
    Codec ID                    : V_MPEG4/ISO/AVC
    Duration                    : 48 min 37 s
    Bit rate mode               : Constant
    Bit rate                    : 6 017 kb/s
    Nominal bit rate            : 10 000 kb/s
    Width                       : 1 920 pixels
    Height                      : 872 pixels
    Display aspect ratio        : 2.2:1
    Frame rate mode             : Constant
    Frame rate                  : 25.000 FPS
    Color space                 : YUV
    Chroma subsampling          : 4:2:0
    Bit depth                   : 8 bits
    Scan type                   : Progressive
    Bits/(Pixel*Frame)          : 0.144
    Stream size                 : 2.04 GiB (76%)
    Title                       : CinemaniaHDD
    Default                     : Yes
    Forced                      : No
    Color range                 : Limited
    Color primaries             : BT.709
    Transfer characteristics    : BT.709
    Matrix coefficients         : BT.709

    Audio #1
    ID                          : 2
    Format                      : AC-3
    Format/Info                 : Audio Coding 3
    Commercial name             : Dolby Digital
    Codec ID                    : A_AC3
    Duration                    : 48 min 37 s
    Bit rate mode               : Constant
    Bit rate                    : 640 kb/s
    Channel(s)                  : 6 channels
    Channel layout              : L R C LFE Ls Rs
    Sampling rate               : 48.0 kHz
    Frame rate                  : 31.250 FPS (1536 SPF)
    Compression mode            : Lossy
    Stream size                 : 223 MiB (8%)
    Title                       : Español Latino [CinemaniaHDD]
    Language                    : Spanish
    Service kind                : Complete Main
    Default                     : Yes
    Forced                      : No

    Audio #2
    ID                          : 3
    Format                      : E-AC-3
    Format/Info                 : Enhanced AC-3
    Commercial name             : Dolby Digital Plus
    Codec ID                    : A_EAC3
    Duration                    : 48 min 37 s
    Bit rate mode               : Constant
    Bit rate                    : 640 kb/s
    Channel(s)                  : 6 channels
    Channel layout              : L R C LFE Ls Rs
    Sampling rate               : 48.0 kHz
    Frame rate                  : 31.250 FPS (1536 SPF)
    Compression mode            : Lossy
    Stream size                 : 223 MiB (8%)
    Title                       : Español latino / E-AC3 [CinemaniaHDD]
    Language                    : Spanish
    Service kind                : Complete Main
    Default                     : No
    Forced                      : No

    Audio #3
    ID                          : 4
    Format                      : E-AC-3
    Format/Info                 : Enhanced AC-3
    Commercial name             : Dolby Digital Plus
    Codec ID                    : A_EAC3
    Duration                    : 48 min 37 s
    Bit rate mode               : Constant
    Bit rate                    : 640 kb/s
    Channel(s)                  : 6 channels
    Channel layout              : L R C LFE Ls Rs
    Sampling rate               : 48.0 kHz
    Frame rate                  : 31.250 FPS (1536 SPF)
    Compression mode            : Lossy
    Stream size                 : 223 MiB (8%)
    Title                       : Inglés [CinemaniaHDD]
    Language                    : English
    Service kind                : Complete Main
    Default                     : No
    Forced                      : No

    Text #1
    ID                          : 5
    Format                      : UTF-8
    Codec ID                    : S_TEXT/UTF8
    Codec ID/Info               : UTF-8 Plain Text
    Duration                    : 44 min 1 s
    Bit rate                    : 2 b/s
    Count of elements           : 27
    Stream size                 : 705 Bytes (0%)
    Title                       : Forzados [CinemaniaHDD]
    Language                    : Spanish
    Default                     : Yes
    Forced                      : Yes

    Text #2
    ID                          : 6
    Format                      : UTF-8
    Codec ID                    : S_TEXT/UTF8
    Codec ID/Info               : UTF-8 Plain Text
    Duration                    : 47 min 25 s
    Bit rate                    : 49 b/s
    Count of elements           : 518
    Stream size                 : 17.2 KiB (0%)
    Title                       : Español Latino [CinemaniaHDD]
    Language                    : Spanish
    Default                     : No
    Forced                      : No

    Text #3
    ID                          : 7
    Format                      : UTF-8
    Codec ID                    : S_TEXT/UTF8
    Codec ID/Info               : UTF-8 Plain Text
    Duration                    : 44 min 16 s
    Bit rate                    : 33 b/s
    Count of elements           : 321
    Stream size                 : 10.9 KiB (0%)
    Title                       : Inglés [CinemaniaHDD]
    Language                    : English
    Default                     : No
    Forced                      : No

    Menu
    00:00:00.000                : 1. Prime Video
    00:00:07.000                : 2. Disclaimer
    00:00:13.000                : Scene 3
    00:06:47.000                : 4. Title Sequence
    00:06:55.000                : Scene 5
    00:09:19.000                : Scene 6
    00:13:20.000                : Scene 7
    00:17:26.000                : Scene 8
    00:19:23.000                : Scene 9
    00:20:13.000                : Scene 10
    00:21:02.000                : Scene 11
    00:22:11.000                : Scene 12
    00:24:13.000                : Scene 13
    00:27:49.000                : Scene 14
    00:28:52.000                : Scene 15
    00:32:38.000                : Scene 16
    00:40:00.000                : Scene 17
    00:44:07.000                : 18. Next On
    00:44:41.000                : 19. End Credits

     

  • Peso: 2.70 GiB Aprox ---- 23 GiB in 8 Chapters.

Sinopsis

[Audio original en «Múltiples idiomas»] La serie, inspirada en la historia verdadera del robo al Diamond Center, sigue a Leonardo Notarbartolo y su peculiar pandilla de ladrones que intentan hacer «el robo del siglo». Protagonizada por Kim Rossi Stuart, Anna Foglietta y Rupert Everett.

Ficha técnica

Video trailer de la película

Enlaces de descarga

Rip de Bluray

Descargar Everybody Loves Diamonds (2023) Primera Temporada AMZN WEB-DL 1080p Latino




Aportes de DPeliculasHDmega la pass es:dpeliculashdmega.org Aportes de CinemaniaHD la pass es:cinemaniahdd.com Aportes recientes:cinemaniahdd.net
Guardado en : Drama , Series

Películas relacionadas

descargar Everybody Loves Diamonds (2023) Primera Temporada AMZN WEB-DL 1080p Latino 1080p 1080p gratis, Everybody Loves Diamonds (2023) Primera Temporada AMZN WEB-DL 1080p Latino 1080p mega 1 link, Everybody Loves Diamonds (2023) Primera Temporada AMZN WEB-DL 1080p Latino 1080p serie completa, descargar Everybody Loves Diamonds (2023) Primera Temporada AMZN WEB-DL 1080p Latino 1080p gratis en mega.

Everybody Loves Diamonds (2023) Primera Temporada AMZN WEB-DL 1080p Latino pelicula full hd, Everybody Loves Diamonds (2023) Primera Temporada AMZN WEB-DL 1080p Latino mega latino, Everybody Loves Diamonds (2023) Primera Temporada AMZN WEB-DL 1080p Latino 4k latino, Everybody Loves Diamonds (2023) Primera Temporada AMZN WEB-DL 1080p Latino pelicula completa, Everybody Loves Diamonds (2023) Primera Temporada AMZN WEB-DL 1080p Latino descargar gratis, descargar Everybody Loves Diamonds (2023) Primera Temporada AMZN WEB-DL 1080p Latino pelicula latino, Everybody Loves Diamonds (2023) Primera Temporada AMZN WEB-DL 1080p Latino 1 link mega, Everybody Loves Diamonds (2023) Primera Temporada AMZN WEB-DL 1080p Latino 1 link google drive, Everybody Loves Diamonds (2023) Primera Temporada AMZN WEB-DL 1080p Latino hd 1080p latino.
Comentarios 0