×

¿Problemas para descargar con Mozilla, EDGE? Deshabilita la opción "Abrir vinculos en una pestaña nueva" tal como lo muestra ésta imagen.

Festival de la Canción de Eurovisión: La historia de Fire Saga (2020) 4K UHD HDR Web-DL Latino

362 vistas

Información de Festival de la Canción de Eurovisión: La historia de Fire Saga (2020) 4K UHD HDR Web-DL Latino

Datos de la película

  • Calidad: WEBDL
  • Audio: Español Latino E-AC3 5.1 Netflix - Ingles E-AC3 5.1 Netflix
  • Subtitulos: Español Latino SRT - Ingles SRT
  • Resolución: 3840x2160p
  • Formato: MKV
  • Codec: HEVC
  • Encoder: CinefiloCool
  • Mediainfo: Clic para Mostrar Datos Ver
  • La historia de Fire Saga (2020) UHD HDR Web-DL Latino-CMHDD.mkv
    Format                      : Matroska
    Format version              : Version 4
    File size                   : 14.4 GiB
    Duration                    : 2 h 3 min
    Overall bit rate            : 16.7 Mb/s
    Movie name                  : Eurovision Song Contest The Story of Fire Saga (2020) CinemaniaHDD.Net
    Encoded date                : UTC 2020-07-22 04:42:58
    Writing application         : mkvmerge v46.0.0 ('No Deeper Escape') 64-bit
    Writing library             : libebml v1.3.10 + libmatroska v1.5.2
    Attachments                 : CINEMANIAHD.png

    Video
    ID                          : 1
    Format                      : HEVC
    Format/Info                 : High Efficiency Video Coding
    Format profile              : Main 10@L5@Main
    HDR format                  : SMPTE ST 2086, HDR10 compatible
    Codec ID                    : V_MPEGH/ISO/HEVC
    Duration                    : 2 h 0 min
    Bit rate                    : 15.8 Mb/s
    Width                       : 3 840 pixels
    Height                      : 2 160 pixels
    Display aspect ratio        : 16:9
    Frame rate mode             : Constant
    Frame rate                  : 24.000 FPS
    Color space                 : YUV
    Chroma subsampling          : 4:2:0 (Type 2)
    Bit depth                   : 10 bits
    Bits/(Pixel*Frame)          : 0.079
    Stream size                 : 13.3 GiB (92%)
    Title                       : Web 2160p HDR [CinemaniaHDD]
    Default                     : Yes
    Forced                      : Yes
    Color range                 : Limited
    Color primaries             : BT.2020
    Transfer characteristics    : PQ
    Matrix coefficients         : BT.2020 non-constant
    Mastering display color pri : Display P3
    Mastering display luminance : min: 0.0050 cd/m2, max: 4000 cd/m2
    Maximum Content Light Level : 2502 cd/m2
    Maximum Frame-Average Light : 342 cd/m2

    Audio #1
    ID                          : 2
    Format                      : E-AC-3
    Format/Info                 : Enhanced AC-3
    Commercial name             : Dolby Digital Plus
    Codec ID                    : A_EAC3
    Duration                    : 2 h 3 min
    Bit rate mode               : Constant
    Bit rate                    : 640 kb/s
    Channel(s)                  : 6 channels
    Channel layout              : L R C LFE Ls Rs
    Sampling rate               : 48.0 kHz
    Frame rate                  : 31.250 FPS (1536 SPF)
    Compression mode            : Lossy
    Stream size                 : 566 MiB (4%)
    Title                       : Español Latino [CinemaniaHDD]
    Language                    : Spanish
    Service kind                : Complete Main
    Default                     : Yes
    Forced                      : Yes

    Audio #2
    ID                          : 3
    Format                      : E-AC-3
    Format/Info                 : Enhanced AC-3
    Commercial name             : Dolby Digital Plus
    Codec ID                    : A_EAC3
    Duration                    : 2 h 3 min
    Bit rate mode               : Constant
    Bit rate                    : 640 kb/s
    Channel(s)                  : 6 channels
    Channel layout              : L R C LFE Ls Rs
    Sampling rate               : 48.0 kHz
    Frame rate                  : 31.250 FPS (1536 SPF)
    Compression mode            : Lossy
    Stream size                 : 566 MiB (4%)
    Title                       : Ingles [CinemaniaHDD]
    Language                    : English
    Service kind                : Complete Main
    Default                     : No
    Forced                      : No

    Text #1
    ID                          : 4
    Format                      : UTF-8
    Codec ID                    : S_TEXT/UTF8
    Codec ID/Info               : UTF-8 Plain Text
    Duration                    : 2 h 0 min
    Bit rate                    : 7 b/s
    Count of elements           : 208
    Stream size                 : 6.75 KiB (0%)
    Title                       : Forzados-SRT [CinemaniaHDD]
    Language                    : Spanish
    Default                     : Yes
    Forced                      : Yes

    Text #2
    ID                          : 5
    Format                      : UTF-8
    Codec ID                    : S_TEXT/UTF8
    Codec ID/Info               : UTF-8 Plain Text
    Duration                    : 2 h 0 min
    Bit rate                    : 59 b/s
    Count of elements           : 1866
    Stream size                 : 52.8 KiB (0%)
    Title                       : Español-SRT [CinemaniaHDD]
    Language                    : Spanish
    Default                     : No
    Forced                      : No

    Text #3
    ID                          : 6
    Format                      : UTF-8
    Codec ID                    : S_TEXT/UTF8
    Codec ID/Info               : UTF-8 Plain Text
    Duration                    : 2 h 0 min
    Bit rate                    : 104 b/s
    Count of elements           : 2281
    Stream size                 : 91.9 KiB (0%)
    Title                       : Ingles-SRT [CinemaniaHDD]
    Language                    : English
    Default                     : No
    Forced                      : No

  • Peso: 14.4 GiB

Sinopsis

Descargar Festival de la Canción de Eurovisión: La historia de Fire Saga (2020) 4K UHD HDR Web-DL Latino. Lars (Will Ferrell) y Sigrit (Rachel McAdams) son dos músicos islandeses desconocidos que tienen delante la oportunidad de su vida: representar a su país en el concurso musical más importante del mundo. Ahora podrán demostrar que hay sueños por los que vale la pena luchar.

Ficha técnica

Video trailer de la película

Enlaces de descarga

Rip de Bluray

Descargar Festival de la Canción de Eurovisión: La historia de Fire Saga (2020) 4K UHD HDR Web-DL Latino




Aportes de DPeliculasHDmega la pass es:dpeliculashdmega.org Aportes de CinemaniaHD la pass es:cinemaniahdd.com
Guardado en : 4K HDR , 4K UHD , Comedia , Música , Netflix

Películas relacionadas

descargar Festival de la Canción de Eurovisión: La historia de Fire Saga (2020) 4K UHD HDR Web-DL Latino WEBDL 1080p gratis, Festival de la Canción de Eurovisión: La historia de Fire Saga (2020) 4K UHD HDR Web-DL Latino WEBDL mega 1 link, Festival de la Canción de Eurovisión: La historia de Fire Saga (2020) 4K UHD HDR Web-DL Latino WEBDL pelicula completa, descargar Festival de la Canción de Eurovisión: La historia de Fire Saga (2020) 4K UHD HDR Web-DL Latino WEBDL gratis en mega.

Festival de la Canción de Eurovisión: La historia de Fire Saga (2020) 4K UHD HDR Web-DL Latino pelicula full hd, Festival de la Canción de Eurovisión: La historia de Fire Saga (2020) 4K UHD HDR Web-DL Latino mega latino, Festival de la Canción de Eurovisión: La historia de Fire Saga (2020) 4K UHD HDR Web-DL Latino 4k latino, Festival de la Canción de Eurovisión: La historia de Fire Saga (2020) 4K UHD HDR Web-DL Latino pelicula completa, Festival de la Canción de Eurovisión: La historia de Fire Saga (2020) 4K UHD HDR Web-DL Latino descargar gratis, descargar Festival de la Canción de Eurovisión: La historia de Fire Saga (2020) 4K UHD HDR Web-DL Latino pelicula latino, Festival de la Canción de Eurovisión: La historia de Fire Saga (2020) 4K UHD HDR Web-DL Latino 1 link mega, Festival de la Canción de Eurovisión: La historia de Fire Saga (2020) 4K UHD HDR Web-DL Latino 1 link google drive, Festival de la Canción de Eurovisión: La historia de Fire Saga (2020) 4K UHD HDR Web-DL Latino hd 1080p latino.
Comentarios 0